  0
SECTION
  2
HEADER
  9
$EXTMAX
 10
210.0
 20
297.0
 30
0.0
  9
$EXTMIN
 10
0.0
 20
0.0
 30
0.0
  9
$LIMMIN
 10
0.0
 20
0.0
  9
$LIMMAX
 10
210.0
 20
297.0
  9
$VIEWCTR
 10
105.0
 20
148.5
  9
$VIEWSIZE
 40
297.0
  9
$CLAYER
  8
0
  9
$LTSCALE
 40
19.36
  9
$CELTYPE
  6
BYLAYER
  9
$DIMSCALE
 40
1.0
  9
$DIMASZ
 40
3.5
  9
$DIMEXO
 40
1.0
  9
$DIMDLI
 40
13.376
  9
$DIMEXE
 40
2.0
  9
$DIMCEN
 40
3.168
  9
$DIMLFAC
 40
1.0
  9
$DIMBLK
  1
_FILLED
  9
$DIMTXT
 40
3.5
  9
$AUNITS
 70
0
  9
$PDMODE
 70
3
  9
$PDSIZE
 40
0.3125
  9
$TILEMODE
 70
1
  0
ENDSEC
  0
SECTION
  2
TABLES
  0
TABLE
  2
LTYPE
 70
6
  0
LTYPE
  2
BYBLOCK
 70
0
  3

 72
65
 73
0
 40
0.0
  0
LTYPE
  2
BYLAYER
 70
0
  3

 72
65
 73
0
 40
0.0
  0
LTYPE
  2
CONTINUOUS
 70
64
  3
Solid line
 72
65
 73
0
 40
0.0
  0
LTYPE
  2
CENTER
 70
64
  3
____ _ ____ _ ____ _ ____ _ ____ _ ____ _ ____
 72
65
 73
4
 40
0.6
 49
0.375
 49
-0.075
 49
0.075
 49
-0.075
  0
LTYPE
  2
HIDDEN
 70
64
  3
- - - - - - - - - - - - - - - - - - - -
 72
65
 73
2
 40
0.2
 49
0.1
 49
-0.1
  0
LTYPE
  2
PHANTOM
 70
64
  3
_____ _ _ _____ _ _ _____ _ _ _____
 72
65
 73
6
 40
0.8
 49
0.45
 49
-0.05
 49
0.1
 49
-0.05
 49
0.1
 49
-0.05
  0
LTYPE
  2
DOT
 70
64
  3
. . . . . . . . . . . . . . . . . . . .
 72
65
 73
2
 40
0.2
 49
0.1
 49
-0.1
  0
LTYPE
  2
DASHED
 70
64
  3
- - - - - - - - - - - - - - - - - - - -
 72
65
 73
2
 40
0.2
 49
0.1
 49
-0.1
  0
ENDTAB
  0
TABLE
  2
LAYER
 70
36
  0
LAYER
  2
0
 70
0
 62
7
  6
CONTINUOUS
  0
LAYER
  2
DEFAULT_1
 70
0
 62
7
  6
CENTER
  0
LAYER
  2
DEFAULT_2
 70
0
 62
8
  6
HIDDEN
  0
LAYER
  2
DEFAULT_3
 70
0
 62
7
  6
PHANTOM
  0
LAYER
  2
CSYS
 70
0
 62
7
  6
CONTINUOUS
  0
LAYER
  2
CURVE
 70
0
 62
7
  6
CONTINUOUS
  0
LAYER
  2
PITCHLINE
 70
0
 62
7
  6
CONTINUOUS
  0
LAYER
  2
SQ
 70
0
 62
7
  6
CONTINUOUS
  0
LAYER
  2
SURFACE
 70
0
 62
7
  6
CONTINUOUS
  0
ENDTAB
  0
TABLE
  2
STYLE
 70
1
  0
STYLE
  2
STANDARD
 70
0
 40
0.0
 41
0.8
 50
0.0
 71
0
 42
0.2
  3
txt
  4

  0
STYLE
  2
TEXTSTYLE_1
 70
0
 40
0.0
 41
0.8
 50
0.0
 71
0
 42
0.2
  3
gdt
  4

  0
STYLE
  2
TEXTSTYLE_2
 70
0
 40
0.0
 41
0.47
 50
0.0
 71
0
 42
0.2
  3
txt
  4

  0
STYLE
  2
TEXTSTYLE_3
 70
0
 40
0.0
 41
0.7
 50
0.0
 71
0
 42
0.2
  3
txt
  4

  0
STYLE
  2
TEXTSTYLE_4
 70
0
 40
0.0
 41
0.58
 50
0.0
 71
0
 42
0.2
  3
txt
  4

  0
STYLE
  2
TEXTSTYLE_5
 70
0
 40
0.0
 41
0.6
 50
0.0
 71
0
 42
0.2
  3
txt
  4

  0
STYLE
  2
TEXTSTYLE_6
 70
0
 40
0.0
 41
0.8
 50
0.0
 71
0
 42
0.2
  3
txt
  4

  0
STYLE
  2
TEXTSTYLE_7
 70
0
 40
0.0
 41
0.35
 50
0.0
 71
0
 42
0.2
  3
txt
  4

  0
STYLE
  2
TEXTSTYLE_8
 70
0
 40
0.0
 41
0.3
 50
0.0
 71
0
 42
0.2
  3
txt
  4

  0
ENDTAB
  0
ENDSEC
  0
SECTION
  2
BLOCKS
  0
BLOCK
  8
0
 62
2
  6
CONTINUOUS
  2
AMMERAAL_LOGO_BL0
 70
64
 10
48.9492142481
 20
38.2424096735
  0
LINE
  8
0
 62
7
  6
CONTINUOUS
 10
15.4450080326
 20
44.7114053384
 11
13.9566351466
 21
38.9517714773
  0
LINE
  8
0
 62
7
  6
CONTINUOUS
 10
14.1857538134
 20
35.961125083
 11
24.84026816
 21
26.3121558
  0
LINE
  8
0
 62
7
  6
CONTINUOUS
 10
25.4058277341
 20
38.2112455312
 11
26.8226322503
 21
41.0295465009
  0
LINE
  8
0
 62
7
  6
CONTINUOUS
 10
24.6003087912
 20
36.5411413665
 11
25.2299996869
 21
37.7937195266
  0
LINE
  8
0
 62
7
  6
CONTINUOUS
 10
26.4874258526
 20
41.4470725056
 11
23.9870673988
 21
36.5411413665
  0
LINE
  8
0
 62
7
  6
CONTINUOUS
 10
28.0753432506
 20
36.5411413665
 11
27.3050809937
 21
41.4470725056
  0
LINE
  8
0
 62
7
  6
CONTINUOUS
 10
27.2741376858
 20
37.7937195266
 11
27.4621018582
 21
36.5411413665
  0
LINE
  8
0
 62
7
  6
CONTINUOUS
 10
26.8226322503
 20
41.0295465009
 11
27.2455519843
 21
38.2112455312
  0
LINE
  8
0
 62
7
  6
CONTINUOUS
 10
29.4819673876
 20
39.8813496958
 11
28.8929985379
 21
36.5411413665
  0
LINE
  8
0
 62
7
  6
CONTINUOUS
 10
29.4040328367
 20
36.5411413665
 11
29.8641647617
 21
39.1506791878
  0
LINE
  8
0
 62
7
  6
CONTINUOUS
 10
29.9377858614
 20
39.5682051924
 11
29.9930016862
 21
39.8813496958
  0
LINE
  8
0
 62
7
  6
CONTINUOUS
 10
30.9700357627
 20
39.0462976866
 11
30.5283091125
 21
36.5411413665
  0
LINE
  8
0
 62
7
  6
CONTINUOUS
 10
31.92711409
 20
44.9814015639
 11
32.6874781423
 21
48.5619388594
  0
LINE
  8
0
 62
7
  6
CONTINUOUS
 10
33.0418575399
 20
48.4866788537
 11
31.5056940938
 21
41.2529195848
  0
LINE
  8
0
 62
7
  6
CONTINUOUS
 10
30.2555066136
 20
35.3658093224
 11
29.2430855963
 21
30.5983414229
  0
LINE
  8
0
 62
7
  6
CONTINUOUS
 10
30.3554888014
 20
50.6608787736
 11
16.937164312
 21
46.2982152131
  0
LINE
  8
0
 62
7
  6
CONTINUOUS
 10
31.6849072566
 20
27.8745540233
 11
18.2703459222
 21
40.1412147925
  0
LINE
  8
0
 62
7
  6
CONTINUOUS
 10
29.2430855963
 20
30.5983414229
 11
31.9293861204
 21
28.1419109491
  0
LINE
  8
0
 62
7
  6
CONTINUOUS
 10
31.0393434112
 20
36.5411413665
 11
31.4810700614
 21
39.0462976866
  0
LINE
  8
0
 62
7
  6
CONTINUOUS
 10
32.6053457525
 20
39.0462976866
 11
32.1636191024
 21
36.5411413665
  0
LINE
  8
0
 62
7
  6
CONTINUOUS
 10
32.6746539859
 20
36.5411413665
 11
33.116380636
 21
39.0462976866
  0
LINE
  8
0
 62
7
  6
CONTINUOUS
 10
31.4810700614
 20
39.0462976866
 11
31.6200877049
 21
39.255060689
  0
LINE
  8
0
 62
7
  6
CONTINUOUS
 10
30.9046392189
 20
39.255060689
 11
30.9700357627
 21
39.0462976866
  0
LINE
  8
0
 62
7
  6
CONTINUOUS
 10
32.5399497935
 20
39.255060689
 11
32.6053457525
 21
39.0462976866
  0
LINE
  8
0
 62
7
  6
CONTINUOUS
 10
33.116380636
 20
39.0462976866
 11
33.0039928233
 21
39.5682051924
  0
LINE
  8
0
 62
7
  6
CONTINUOUS
 10
34.0812778304
 20
39.8813496958
 11
33.4923089808
 21
36.5411413665
  0
LINE
  8
0
 62
7
  6
CONTINUOUS
 10
34.0033438643
 20
36.5411413665
 11
34.4634757894
 21
39.1506791878
  0
LINE
  8
0
 62
7
  6
CONTINUOUS
 10
34.5370968892
 20
39.5682051924
 11
34.592312714
 21
39.8813496958
  0
LINE
  8
0
 62
7
  6
CONTINUOUS
 10
35.5693456207
 20
39.0462976866
 11
35.1276189706
 21
36.5411413665
  0
LINE
  8
0
 62
7
  6
CONTINUOUS
 10
35.6386538541
 20
36.5411413665
 11
36.0803805043
 21
39.0462976866
  0
LINE
  8
0
 62
7
  6
CONTINUOUS
 10
30.1790105987
 20
39.7769681947
 11
29.9377858614
 21
39.5682051924
  0
LINE
  8
0
 62
7
  6
CONTINUOUS
 10
29.8641647617
 20
39.1506791878
 11
30.1053894989
 21
39.3594421901
  0
LINE
  8
0
 62
7
  6
CONTINUOUS
 10
30.8208374001
 20
39.3594421901
 11
30.9046392189
 21
39.255060689
  0
LINE
  8
0
 62
7
  6
CONTINUOUS
 10
31.4524840675
 20
39.4638236912
 11
31.2010791961
 21
39.7769681947
  0
LINE
  8
0
 62
7
  6
CONTINUOUS
 10
35.5039496617
 20
39.255060689
 11
35.5693456207
 21
39.0462976866
  0
LINE
  8
0
 62
7
  6
CONTINUOUS
 10
38.3861038485
 20
38.2112455312
 11
38.3778787077
 21
37.5849565242
  0
LINE
  8
0
 62
7
  6
CONTINUOUS
 10
37.2046567802
 20
39.0462976866
 11
36.7629301301
 21
36.5411413665
  0
LINE
  8
0
 62
7
  6
CONTINUOUS
 10
37.273963844
 20
36.5411413665
 11
37.715690494
 21
39.0462976866
  0
LINE
  8
0
 62
7
  6
CONTINUOUS
 10
34.9217103729
 20
29.0932230796
 11
36.2878150117
 21
35.3658093224
  0
LINE
  8
0
 62
7
  6
CONTINUOUS
 10
37.569965824
 20
41.2529195848
 11
37.9820845795
 21
43.1451980839
  0
LINE
  8
0
 62
7
  6
CONTINUOUS
 10
38.5987420327
 20
38.8375346843
 11
38.3861038485
 21
38.2112455312
  0
LINE
  8
0
 62
7
  6
CONTINUOUS
 10
36.0803805043
 20
39.0462976866
 11
36.219397563
 21
39.255060689
  0
LINE
  8
0
 62
7
  6
CONTINUOUS
 10
31.8143205885
 20
39.7769681947
 11
31.4524840675
 21
39.4638236912
  0
LINE
  8
0
 62
7
  6
CONTINUOUS
 10
31.6200877049
 20
39.255060689
 11
31.7406994887
 21
39.3594421901
  0
LINE
  8
0
 62
7
  6
CONTINUOUS
 10
34.7783204567
 20
39.7769681947
 11
34.5370968892
 21
39.5682051924
  0
LINE
  8
0
 62
7
  6
CONTINUOUS
 10
34.4634757894
 20
39.1506791878
 11
34.7046993569
 21
39.3594421901
  0
LINE
  8
0
 62
7
  6
CONTINUOUS
 10
14.7239943794
 20
39.3881977666
 11
31.92711409
 21
44.9814015639
  0
LINE
  8
0
 62
7
  6
CONTINUOUS
 10
18.2703459222
 20
40.1412147925
 11
14.8416117901
 21
39.0264397348
  0
LINE
  8
0
 62
7
  6
CONTINUOUS
 10
32.4561479748
 20
39.3594421901
 11
32.5399497935
 21
39.255060689
  0
LINE
  8
0
 62
7
  6
CONTINUOUS
 10
33.0039928233
 20
39.5682051924
 11
32.8363897708
 21
39.7769681947
  0
LINE
  8
0
 62
7
  6
CONTINUOUS
 10
37.1392596516
 20
39.255060689
 11
37.2046567802
 21
39.0462976866
  0
LINE
  8
0
 62
7
  6
CONTINUOUS
 10
38.3778787077
 20
37.5849565242
 11
38.5086717824
 21
37.1674304465
  0
LINE
  8
0
 62
7
  6
CONTINUOUS
 10
37.715690494
 20
39.0462976866
 11
37.6033038511
 21
39.5682051924
  0
LINE
  8
0
 62
7
  6
CONTINUOUS
 10
38.9073188662
 20
37.6893380254
 11
38.8603281822
 21
38.0024825289
  0
LINE
  8
0
 62
7
  6
CONTINUOUS
 10
38.8603281822
 20
38.0024825289
 11
38.897138732
 21
38.2112455312
  0
LINE
  8
0
 62
7
  6
CONTINUOUS
 10
39.0729663664
 20
38.628771682
 11
39.0913716414
 21
38.7331531832
  0
LINE
  8
0
 62
7
  6
CONTINUOUS
 10
41.2561217897
 20
38.8375346843
 11
41.2193112397
 21
38.628771682
  0
LINE
  8
0
 62
7
  6
CONTINUOUS
 10
38.8767773198
 20
39.255060689
 11
38.5987420327
 21
38.8375346843
  0
LINE
  8
0
 62
7
  6
CONTINUOUS
 10
39.0913716414
 20
38.7331531832
 11
39.2303887001
 21
38.9419161854
  0
LINE
  8
0
 62
7
  6
CONTINUOUS
 10
36.4136316162
 20
39.7769681947
 11
36.0517950952
 21
39.4638236912
  0
LINE
  8
0
 62
7
  6
CONTINUOUS
 10
36.219397563
 20
39.255060689
 11
36.3400105165
 21
39.3594421901
  0
LINE
  8
0
 62
7
  6
CONTINUOUS
 10
31.7406994887
 20
39.3594421901
 11
31.963518951
 21
39.4638236912
  0
LINE
  8
0
 62
7
  6
CONTINUOUS
 10
30.6348290726
 20
39.4638236912
 11
30.8208374001
 21
39.3594421901
  0
LINE
  8
0
 62
7
  6
CONTINUOUS
 10
35.4201484279
 20
39.3594421901
 11
35.5039496617
 21
39.255060689
  0
LINE
  8
0
 62
7
  6
CONTINUOUS
 10
36.0517950952
 20
39.4638236912
 11
35.8003902238
 21
39.7769681947
  0
LINE
  8
0
 62
7
  6
CONTINUOUS
 10
38.5086717824
 20
37.1674304465
 11
38.6762754134
 21
36.9586674077
  0
LINE
  8
0
 62
7
  6
CONTINUOUS
 10
37.0554584177
 20
39.3594421901
 11
37.1392596516
 21
39.255060689
  0
LINE
  8
0
 62
7
  6
CONTINUOUS
 10
39.2241196836
 20
37.1674304465
 11
38.9727148252
 21
37.4805750231
  0
LINE
  8
0
 62
7
  6
CONTINUOUS
 10
37.6033038511
 20
39.5682051924
 11
37.4357002136
 21
39.7769681947
  0
LINE
  8
0
 62
7
  6
CONTINUOUS
 10
38.9727148252
 20
37.4805750231
 11
38.9073188662
 21
37.6893380254
  0
LINE
  8
0
 62
7
  6
CONTINUOUS
 10
41.7303461233
 20
38.628771682
 11
41.7017595445
 21
39.0462976866
  0
LINE
  8
0
 62
7
  6
CONTINUOUS
 10
41.6567249977
 20
38.2112455312
 11
41.7303461233
 21
38.628771682
  0
LINE
  8
0
 62
7
  6
CONTINUOUS
 10
42.7688638327
 20
39.8813496958
 11
42.179894983
 21
36.5411413665
  0
LINE
  8
0
 62
7
  6
CONTINUOUS
 10
42.6909298665
 20
36.5411413665
 11
43.0590354169
 21
38.628771682
  0
LINE
  8
0
 62
7
  6
CONTINUOUS
 10
43.1694670665
 20
39.255060689
 11
43.2798987162
 21
39.8813496958
  0
LINE
  8
0
 62
7
  6
CONTINUOUS
 10
41.370464557
 20
37.1674304465
 11
41.5462933481
 21
37.5849565242
  0
LINE
  8
0
 62
7
  6
CONTINUOUS
 10
41.0352584646
 20
37.5849565242
 11
40.877836118
 21
37.2718119477
  0
LINE
  8
0
 62
7
  6
CONTINUOUS
 10
39.1180020571
 20
39.4638236912
 11
38.8767773198
 21
39.255060689
  0
LINE
  8
0
 62
7
  6
CONTINUOUS
 10
39.2303887001
 20
38.9419161854
 11
39.5922252211
 21
39.255060689
  0
LINE
  8
0
 62
7
  6
CONTINUOUS
 10
39.4614333031
 20
39.6725866936
 11
39.1180020571
 21
39.4638236912
  0
LINE
  8
0
 62
7
  6
CONTINUOUS
 10
36.3400105165
 20
39.3594421901
 11
36.5628288091
 21
39.4638236912
  0
LINE
  8
0
 62
7
  6
CONTINUOUS
 10
39.5922252211
 20
39.255060689
 11
39.8150446834
 21
39.3594421901
  0
LINE
  8
0
 62
7
  6
CONTINUOUS
 10
30.5040365698
 20
39.8813496958
 11
30.1790105987
 21
39.7769681947
  0
LINE
  8
0
 62
7
  6
CONTINUOUS
 10
30.1053894989
 20
39.3594421901
 11
30.43041547
 21
39.4638236912
  0
LINE
  8
0
 62
7
  6
CONTINUOUS
 10
32.1393465596
 20
39.8813496958
 11
31.8143205885
 21
39.7769681947
  0
LINE
  8
0
 62
7
  6
CONTINUOUS
 10
35.1033464279
 20
39.8813496958
 11
34.7783204567
 21
39.7769681947
  0
LINE
  8
0
 62
7
  6
CONTINUOUS
 10
34.7046993569
 20
39.3594421901
 11
35.0297253281
 21
39.4638236912
  0
LINE
  8
0
 62
7
  6
CONTINUOUS
 10
36.7386575873
 20
39.8813496958
 11
36.4136316162
 21
39.7769681947
  0
LINE
  8
0
 62
7
  6
CONTINUOUS
 10
26.8628594418
 20
25.8239405734
 11
32.6237237208
 21
27.370107623
  0
LINE
  8
0
 62
7
  6
CONTINUOUS
 10
82.230906097
 20
39.3594421901
 11
82.658142086
 21
39.4638236912
  0
LINE
  8
0
 62
7
  6
CONTINUOUS
 10
82.7317631857
 20
39.8813496958
 11
82.3045271967
 21
39.7769681947
  0
LINE
  8
0
 62
7
  6
CONTINUOUS
 10
78.3470470643
 20
39.3594421901
 11
78.7742783747
 21
39.4638236912
  0
LINE
  8
0
 62
7
  6
CONTINUOUS
 10
74.258767996
 20
39.3594421901
 11
74.686003985
 21
39.4638236912
  0
LINE
  8
0
 62
7
  6
CONTINUOUS
 10
78.3611359639
 20
36.5411413665
 11
79.0949926507
 21
36.6455228768
  0
LINE
  8
0
 62
7
  6
CONTINUOUS
 10
79.0664037439
 20
37.0630489454
 11
78.3325517309
 21
36.9586674077
  0
LINE
  8
0
 62
7
  6
CONTINUOUS
 10
74.2728615743
 20
36.5411413665
 11
75.0067135824
 21
36.6455228768
  0
LINE
  8
0
 62
7
  6
CONTINUOUS
 10
74.9781293543
 20
37.0630489454
 11
74.2442773413
 21
36.9586674077
  0
LINE
  8
0
 62
7
  6
CONTINUOUS
 10
38.9460855565
 20
36.7499043871
 11
39.2343009762
 21
36.6455228768
  0
LINE
  8
0
 62
7
  6
CONTINUOUS
 10
32.2701396472
 20
39.4638236912
 11
32.4561479748
 21
39.3594421901
  0
LINE
  8
0
 62
7
  6
CONTINUOUS
 10
39.4101285961
 20
37.0630489454
 11
39.2241196836
 21
37.1674304465
  0
LINE
  8
0
 62
7
  6
CONTINUOUS
 10
35.2341395155
 20
39.4638236912
 11
35.4201484279
 21
39.3594421901
  0
LINE
  8
0
 62
7
  6
CONTINUOUS
 10
36.8694495052
 20
39.4638236912
 11
37.0554584177
 21
39.3594421901
  0
LINE
  8
0
 62
7
  6
CONTINUOUS
 10
38.6762754134
 20
36.9586674077
 11
38.9460855565
 21
36.7499043871
  0
LINE
  8
0
 62
7
  6
CONTINUOUS
 10
41.7017595445
 20
39.0462976866
 11
41.4687599481
 21
39.4638236912
  0
LINE
  8
0
 62
7
  6
CONTINUOUS
 10
41.1069234271
 20
39.1506791878
 11
41.2561217897
 21
38.8375346843
  0
LINE
  8
0
 62
7
  6
CONTINUOUS
 10
45.0029222401
 20
37.4805750231
 11
45.031508806
 21
37.0630489454
  0
LINE
  8
0
 62
7
  6
CONTINUOUS
 10
44.5165628048
 20
39.3594421901
 11
44.6085891794
 21
39.8813496958
  0
LINE
  8
0
 62
7
  6
CONTINUOUS
 10
45.3158119399
 20
39.255060689
 11
45.27900139
 21
39.0462976866
  0
LINE
  8
0
 62
7
  6
CONTINUOUS
 10
45.0581380649
 20
37.7937195266
 11
45.0029222401
 21
37.4805750231
  0
LINE
  8
0
 62
7
  6
CONTINUOUS
 10
45.4955506661
 20
37.3761934488
 11
45.532361229
 21
37.5849565242
  0
LINE
  8
0
 62
7
  6
CONTINUOUS
 10
45.532361229
 20
37.5849565242
 11
45.6897847323
 21
37.8981010277
  0
LINE
  8
0
 62
7
  6
CONTINUOUS
 10
45.4548301683
 20
39.4638236912
 11
45.3158119399
 21
39.255060689
  0
LINE
  8
0
 62
7
  6
CONTINUOUS
 10
45.7900351039
 20
39.0462976866
 11
45.9290533323
 21
39.255060689
  0
LINE
  8
0
 62
7
  6
CONTINUOUS
 10
45.3361721824
 20
38.2112455312
 11
45.0581380649
 21
37.7937195266
  0
LINE
  8
0
 62
7
  6
CONTINUOUS
 10
43.0590354169
 20
38.628771682
 11
43.4392772129
 21
39.0462976866
  0
LINE
  8
0
 62
7
  6
CONTINUOUS
 10
43.4106918038
 20
39.4638236912
 11
43.1694670665
 21
39.255060689
  0
LINE
  8
0
 62
7
  6
CONTINUOUS
 10
41.0086280295
 20
36.8542859065
 11
41.370464557
 21
37.1674304465
  0
LINE
  8
0
 62
7
  6
CONTINUOUS
 10
45.6960537359
 20
39.6725866936
 11
45.4548301683
 21
39.4638236912
  0
LINE
  8
0
 62
7
  6
CONTINUOUS
 10
43.7541230498
 20
39.6725866936
 11
43.4106918038
 21
39.4638236912
  0
LINE
  8
0
 62
7
  6
CONTINUOUS
 10
40.877836118
 20
37.2718119477
 11
40.5344048719
 21
37.0630489454
  0
LINE
  8
0
 62
7
  6
CONTINUOUS
 10
43.4392772129
 20
39.0462976866
 11
43.8849149678
 21
39.255060689
  0
LINE
  8
0
 62
7
  6
CONTINUOUS
 10
45.9188720284
 20
39.7769681947
 11
45.6960537359
 21
39.6725866936
  0
LINE
  8
0
 62
7
  6
CONTINUOUS
 10
39.7864592743
 20
39.7769681947
 11
39.4614333031
 21
39.6725866936
  0
LINE
  8
0
 62
7
  6
CONTINUOUS
 10
44.079149021
 20
39.7769681947
 11
43.7541230498
 21
39.6725866936
  0
LINE
  8
0
 62
7
  6
CONTINUOUS
 10
65.5711831635
 20
39.3594421901
 11
65.9984144738
 21
39.4638236912
  0
LINE
  8
0
 62
7
  6
CONTINUOUS
 10
61.7014130304
 20
36.5411413665
 11
62.2308520209
 21
36.6455228768
  0
LINE
  8
0
 62
7
  6
CONTINUOUS
 10
78.9501048136
 20
39.8813496958
 11
78.3184581462
 21
39.7769681947
  0
LINE
  8
0
 62
7
  6
CONTINUOUS
 10
74.8618304239
 20
39.8813496958
 11
74.2301837566
 21
39.7769681947
  0
LINE
  8
0
 62
7
  6
CONTINUOUS
 10
65.5852767418
 20
36.5411413665
 11
66.3191287498
 21
36.6455228768
  0
LINE
  8
0
 62
7
  6
CONTINUOUS
 10
66.2905445217
 20
37.0630489454
 11
65.5566878301
 21
36.9586674077
  0
LINE
  8
0
 62
7
  6
CONTINUOUS
 10
36.2878150117
 20
35.3658093224
 11
30.2555066136
 21
35.3658093224
  0
LINE
  8
0
 62
7
  6
CONTINUOUS
 10
39.2343009762
 20
36.6455228768
 11
39.829137092
 21
36.5411413665
  0
LINE
  8
0
 62
7
  6
CONTINUOUS
 10
39.8005505197
 20
36.9586674077
 11
39.4101285961
 21
37.0630489454
  0
LINE
  8
0
 62
7
  6
CONTINUOUS
 10
45.4689214088
 20
36.6455228768
 11
45.8593445069
 21
36.5411413665
  0
LINE
  8
0
 62
7
  6
CONTINUOUS
 10
31.2010791961
 20
39.7769681947
 11
30.9128637748
 21
39.8813496958
  0
LINE
  8
0
 62
7
  6
CONTINUOUS
 10
32.8363897708
 20
39.7769681947
 11
32.5481743495
 21
39.8813496958
  0
LINE
  8
0
 62
7
  6
CONTINUOUS
 10
35.8003902238
 20
39.7769681947
 11
35.5121748026
 21
39.8813496958
  0
LINE
  8
0
 62
7
  6
CONTINUOUS
 10
37.4357002136
 20
39.7769681947
 11
37.1474847923
 21
39.8813496958
  0
LINE
  8
0
 62
7
  6
CONTINUOUS
 10
45.2829136677
 20
36.7499043871
 11
45.4689214088
 21
36.6455228768
  0
LINE
  8
0
 62
7
  6
CONTINUOUS
 10
45.9329656132
 20
36.9586674077
 11
45.5609477948
 21
37.1674304465
  0
LINE
  8
0
 62
7
  6
CONTINUOUS
 10
41.4687599481
 20
39.4638236912
 11
41.0129420591
 21
39.7769681947
  0
LINE
  8
0
 62
7
  6
CONTINUOUS
 10
40.8371132808
 20
39.3594421901
 11
41.1069234271
 21
39.1506791878
  0
LINE
  8
0
 62
7
  6
CONTINUOUS
 10
37.3250418423
 20
45.2119066375
 11
33.0839626821
 21
49.090071421
  0
LINE
  8
0
 62
7
  6
CONTINUOUS
 10
45.031508806
 20
37.0630489454
 11
45.2829136677
 21
36.7499043871
  0
LINE
  8
0
 62
7
  6
CONTINUOUS
 10
45.5609477948
 20
37.1674304465
 11
45.4955506661
 21
37.3761934488
  0
LINE
  8
0
 62
7
  6
CONTINUOUS
 10
48.0609052116
 20
36.8542859065
 11
48.0507239142
 21
37.3761934488
  0
LINE
  8
0
 62
7
  6
CONTINUOUS
 10
47.834174638
 20
39.0462976866
 11
47.7789588132
 21
38.7331531832
  0
LINE
  8
0
 62
7
  6
CONTINUOUS
 10
47.7053376877
 20
38.3156270323
 11
47.5949060381
 21
37.6893380254
  0
LINE
  8
0
 62
7
  6
CONTINUOUS
 10
48.0507239142
 20
37.3761934488
 11
48.3452083519
 21
39.0462976866
  0
LINE
  8
0
 62
7
  6
CONTINUOUS
 10
47.5949060381
 20
37.6893380254
 11
47.4558878096
 21
37.4805750231
  0
LINE
  8
0
 62
7
  6
CONTINUOUS
 10
47.3454561407
 20
36.8542859065
 11
47.4844743755
 21
37.0630489454
  0
LINE
  8
0
 62
7
  6
CONTINUOUS
 10
49.543104558
 20
39.4638236912
 11
49.4040886689
 21
39.255060689
  0
LINE
  8
0
 62
7
  6
CONTINUOUS
 10
45.5773981151
 20
38.4200086797
 11
45.3361721824
 21
38.2112455312
  0
LINE
  8
0
 62
7
  6
CONTINUOUS
 10
45.6897847323
 20
37.8981010277
 11
45.9310082998
 21
38.10686403
  0
LINE
  8
0
 62
7
  6
CONTINUOUS
 10
49.7843304648
 20
39.6725866936
 11
49.543104558
 21
39.4638236912
  0
LINE
  8
0
 62
7
  6
CONTINUOUS
 10
47.4558878096
 20
37.4805750231
 11
47.0940512757
 21
37.1674304465
  0
LINE
  8
0
 62
7
  6
CONTINUOUS
 10
45.9290533323
 20
39.255060689
 11
46.1518716249
 21
39.3594421901
  0
LINE
  8
0
 62
7
  6
CONTINUOUS
 10
40.5629902697
 20
36.6455228768
 11
41.0086280295
 21
36.8542859065
  0
LINE
  8
0
 62
7
  6
CONTINUOUS
 10
46.0230347003
 20
38.628771682
 11
45.5773981151
 21
38.4200086797
  0
LINE
  8
0
 62
7
  6
CONTINUOUS
 10
45.9310082998
 20
38.10686403
 11
46.1538289318
 21
38.2112455312
  0
LINE
  8
0
 62
7
  6
CONTINUOUS
 10
50.0071487575
 20
39.7769681947
 11
49.7843304648
 21
39.6725866936
  0
LINE
  8
0
 62
7
  6
CONTINUOUS
 10
50.0173300612
 20
39.255060689
 11
50.2401483539
 21
39.3594421901
  0
LINE
  8
0
 62
7
  6
CONTINUOUS
 10
50.1113114293
 20
38.628771682
 11
49.6656725047
 21
38.4200086797
  0
LINE
  8
0
 62
7
  6
CONTINUOUS
 10
50.2421033215
 20
38.2112455312
 11
50.6693369711
 21
38.3156270323
  0
LINE
  8
0
 62
7
  6
CONTINUOUS
 10
50.560860289
 20
36.5411413665
 11
51.0903016188
 21
36.6455228768
  0
LINE
  8
0
 62
7
  6
CONTINUOUS
 10
46.4725858993
 20
36.5411413665
 11
47.0020248898
 21
36.6455228768
  0
LINE
  8
0
 62
7
  6
CONTINUOUS
 10
66.1742455914
 20
39.8813496958
 11
65.5425989241
 21
39.7769681947
  0
LINE
  8
0
 62
7
  6
CONTINUOUS
 10
50.7429580966
 20
38.7331531832
 11
50.1113114293
 21
38.628771682
  0
LINE
  8
0
 62
7
  6
CONTINUOUS
 10
39.829137092
 20
36.5411413665
 11
40.5629902697
 21
36.6455228768
  0
LINE
  8
0
 62
7
  6
CONTINUOUS
 10
40.5344048719
 20
37.0630489454
 11
39.8005505197
 21
36.9586674077
  0
LINE
  8
0
 62
7
  6
CONTINUOUS
 10
23.9870673988
 20
36.5411413665
 11
24.6003087912
 21
36.5411413665
  0
LINE
  8
0
 62
7
  6
CONTINUOUS
 10
27.4621018582
 20
36.5411413665
 11
28.0753432506
 21
36.5411413665
  0
LINE
  8
0
 62
7
  6
CONTINUOUS
 10
28.8929985379
 20
36.5411413665
 11
29.4040328367
 21
36.5411413665
  0
LINE
  8
0
 62
7
  6
CONTINUOUS
 10
30.5283091125
 20
36.5411413665
 11
31.0393434112
 21
36.5411413665
  0
LINE
  8
0
 62
7
  6
CONTINUOUS
 10
32.1636191024
 20
36.5411413665
 11
32.6746539859
 21
36.5411413665
  0
LINE
  8
0
 62
7
  6
CONTINUOUS
 10
33.4923089808
 20
36.5411413665
 11
34.0033438643
 21
36.5411413665
  0
LINE
  8
0
 62
7
  6
CONTINUOUS
 10
35.1276189706
 20
36.5411413665
 11
35.6386538541
 21
36.5411413665
  0
LINE
  8
0
 62
7
  6
CONTINUOUS
 10
36.7629301301
 20
36.5411413665
 11
37.273963844
 21
36.5411413665
  0
LINE
  8
0
 62
7
  6
CONTINUOUS
 10
42.179894983
 20
36.5411413665
 11
42.6909298665
 21
36.5411413665
  0
LINE
  8
0
 62
7
  6
CONTINUOUS
 10
45.8593445069
 20
36.5411413665
 11
46.4725858993
 21
36.5411413665
  0
LINE
  8
0
 62
7
  6
CONTINUOUS
 10
47.5968610056
 20
36.5411413665
 11
48.1078947195
 21
36.5411413665
  0
LINE
  8
0
 62
7
  6
CONTINUOUS
 10
49.9476188966
 20
36.5411413665
 11
50.560860289
 21
36.5411413665
  0
LINE
  8
0
 62
7
  6
CONTINUOUS
 10
51.6851377346
 20
36.5411413665
 11
52.1961714485
 21
36.5411413665
  0
LINE
  8
0
 62
7
  6
CONTINUOUS
 10
53.0138258585
 20
36.5411413665
 11
53.5248619117
 21
36.5411413665
  0
LINE
  8
0
 62
7
  6
CONTINUOUS
 10
59.2484474609
 20
36.5411413665
 11
61.7014130304
 21
36.5411413665
  0
LINE
  8
0
 62
7
  6
CONTINUOUS
 10
67.9360322934
 20
36.5411413665
 11
68.4470683466
 21
36.5411413665
  0
LINE
  8
0
 62
7
  6
CONTINUOUS
 10
80.7118961943
 20
36.5411413665
 11
81.2229322475
 21
36.5411413665
  0
LINE
  8
0
 62
7
  6
CONTINUOUS
 10
83.0626564247
 20
36.5411413665
 11
83.5736877992
 21
36.5411413665
  0
LINE
  8
0
 62
7
  6
CONTINUOUS
 10
50.6344813952
 20
36.9586674077
 11
50.0212400028
 21
36.9586674077
  0
LINE
  8
0
 62
7
  6
CONTINUOUS
 10
46.5462070056
 20
36.9586674077
 11
45.9329656132
 21
36.9586674077
  0
LINE
  8
0
 62
7
  6
CONTINUOUS
 10
61.9140523714
 20
37.1674304465
 11
59.9721205158
 21
37.1674304465
  0
LINE
  8
0
 62
7
  6
CONTINUOUS
 10
80.0782922201
 20
37.5849565242
 11
79.5672608455
 21
37.5849565242
  0
LINE
  8
0
 62
7
  6
CONTINUOUS
 10
75.9900178304
 20
37.5849565242
 11
75.4789817772
 21
37.5849565242
  0
LINE
  8
0
 62
7
  6
CONTINUOUS
 10
67.3024329979
 20
37.5849565242
 11
66.7913969447
 21
37.5849565242
  0
LINE
  8
0
 62
7
  6
CONTINUOUS
 10
41.5462933481
 20
37.5849565242
 11
41.0352584646
 21
37.5849565242
  0
LINE
  8
0
 62
7
  6
CONTINUOUS
 10
25.2299996869
 20
37.7937195266
 11
27.2741376858
 21
37.7937195266
  0
LINE
  8
0
 62
7
  6
CONTINUOUS
 10
27.2455519843
 20
38.2112455312
 11
25.4058277341
 21
38.2112455312
  0
LINE
  8
0
 62
7
  6
CONTINUOUS
 10
38.897138732
 20
38.2112455312
 11
41.6567249977
 21
38.2112455312
  0
LINE
  8
0
 62
7
  6
CONTINUOUS
 10
64.6532783818
 20
38.2112455312
 11
67.4128646475
 21
38.2112455312
  0
LINE
  8
0
 62
7
  6
CONTINUOUS
 10
73.3408632144
 20
38.2112455312
 11
76.1004494801
 21
38.2112455312
  0
LINE
  8
0
 62
7
  6
CONTINUOUS
 10
46.5810602421
 20
38.3156270323
 11
47.7053376877
 21
38.3156270323
  0
LINE
  8
0
 62
7
  6
CONTINUOUS
 10
50.6693369711
 20
38.3156270323
 11
51.7936120773
 21
38.3156270323
  0
LINE
  8
0
 62
7
  6
CONTINUOUS
 10
40.2422771634
 20
39.4638236912
 11
40.8371132808
 21
39.3594421901
  0
LINE
  8
0
 62
7
  6
CONTINUOUS
 10
41.0129420591
 20
39.7769681947
 11
40.4181059416
 21
39.8813496958
  0
LINE
  8
0
 62
7
  6
CONTINUOUS
 10
49.5571981378
 20
36.6455228768
 11
49.9476188966
 21
36.5411413665
  0
LINE
  8
0
 62
7
  6
CONTINUOUS
 10
49.3711880574
 20
36.7499043871
 11
49.5571981378
 21
36.6455228768
  0
LINE
  8
0
 62
7
  6
CONTINUOUS
 10
50.0212400028
 20
36.9586674077
 11
49.6492245238
 21
37.1674304465
  0
LINE
  8
0
 62
7
  6
CONTINUOUS
 10
49.1197831956
 20
37.0630489454
 11
49.3711880574
 21
36.7499043871
  0
LINE
  8
0
 62
7
  6
CONTINUOUS
 10
47.5314638802
 20
36.7499043871
 11
47.5968610056
 21
36.5411413665
  0
LINE
  8
0
 62
7
  6
CONTINUOUS
 10
47.7687775094
 20
39.255060689
 11
47.834174638
 21
39.0462976866
  0
LINE
  8
0
 62
7
  6
CONTINUOUS
 10
47.4844743755
 20
37.0630489454
 11
47.5314638802
 21
36.7499043871
  0
LINE
  8
0
 62
7
  6
CONTINUOUS
 10
48.1078947195
 20
36.5411413665
 11
48.0609052116
 21
36.8542859065
  0
LINE
  8
0
 62
7
  6
CONTINUOUS
 10
48.3452083519
 20
39.0462976866
 11
48.2982164983
 21
39.3594421901
  0
LINE
  8
0
 62
7
  6
CONTINUOUS
 10
49.0911989691
 20
37.4805750231
 11
49.1197831956
 21
37.0630489454
  0
LINE
  8
0
 62
7
  6
CONTINUOUS
 10
49.4040886689
 20
39.255060689
 11
49.367278119
 21
39.0462976866
  0
LINE
  8
0
 62
7
  6
CONTINUOUS
 10
49.1464147939
 20
37.7937195266
 11
49.0911989691
 21
37.4805750231
  0
LINE
  8
0
 62
7
  6
CONTINUOUS
 10
49.5838273952
 20
37.3761934488
 11
49.620637958
 21
37.5849565242
  0
LINE
  8
0
 62
7
  6
CONTINUOUS
 10
49.620637958
 20
37.5849565242
 11
49.7780614613
 21
37.8981010277
  0
LINE
  8
0
 62
7
  6
CONTINUOUS
 10
49.8783118329
 20
39.0462976866
 11
50.0173300612
 21
39.255060689
  0
LINE
  8
0
 62
7
  6
CONTINUOUS
 10
49.4244489114
 20
38.2112455312
 11
49.1464147939
 21
37.7937195266
  0
LINE
  8
0
 62
7
  6
CONTINUOUS
 10
49.6656725047
 20
38.4200086797
 11
49.4244489114
 21
38.2112455312
  0
LINE
  8
0
 62
7
  6
CONTINUOUS
 10
49.7780614613
 20
37.8981010277
 11
50.0192850288
 21
38.10686403
  0
LINE
  8
0
 62
7
  6
CONTINUOUS
 10
51.5441645386
 20
37.4805750231
 11
51.1823280047
 21
37.1674304465
  0
LINE
  8
0
 62
7
  6
CONTINUOUS
 10
47.0020248898
 20
36.6455228768
 11
47.3454561407
 21
36.8542859065
  0
LINE
  8
0
 62
7
  6
CONTINUOUS
 10
51.0903016188
 20
36.6455228768
 11
51.4337328697
 21
36.8542859065
  0
LINE
  8
0
 62
7
  6
CONTINUOUS
 10
50.0192850288
 20
38.10686403
 11
50.2421033215
 21
38.2112455312
  0
LINE
  8
0
 62
7
  6
CONTINUOUS
 10
47.0940512757
 20
37.1674304465
 11
46.5462070056
 21
36.9586674077
  0
LINE
  8
0
 62
7
  6
CONTINUOUS
 10
51.1823280047
 20
37.1674304465
 11
50.6344813952
 21
36.9586674077
  0
LINE
  8
0
 62
7
  6
CONTINUOUS
 10
46.1538289318
 20
38.2112455312
 11
46.5810602421
 21
38.3156270323
  0
LINE
  8
0
 62
7
  6
CONTINUOUS
 10
50.2401483539
 20
39.3594421901
 11
50.6673820036
 21
39.4638236912
  0
LINE
  8
0
 62
7
  6
CONTINUOUS
 10
46.1518716249
 20
39.3594421901
 11
46.5791052746
 21
39.4638236912
  0
LINE
  8
0
 62
7
  6
CONTINUOUS
 10
44.6085891794
 20
39.8813496958
 11
44.079149021
 21
39.7769681947
  0
LINE
  8
0
 62
7
  6
CONTINUOUS
 10
46.6546813676
 20
38.7331531832
 11
46.0230347003
 21
38.628771682
  0
LINE
  8
0
 62
7
  6
CONTINUOUS
 10
43.8849149678
 20
39.255060689
 11
44.5165628048
 21
39.3594421901
  0
LINE
  8
0
 62
7
  6
CONTINUOUS
 10
50.7410031033
 20
39.8813496958
 11
50.0071487575
 21
39.7769681947
  0
LINE
  8
0
 62
7
  6
CONTINUOUS
 10
46.6527263743
 20
39.8813496958
 11
45.9188720284
 21
39.7769681947
  0
LINE
  8
0
 62
7
  6
CONTINUOUS
 10
75.6630345524
 20
38.628771682
 11
73.516689679
 21
38.628771682
  0
LINE
  8
0
 62
7
  6
CONTINUOUS
 10
66.9754497198
 20
38.628771682
 11
64.8291048465
 21
38.628771682
  0
LINE
  8
0
 62
7
  6
CONTINUOUS
 10
41.2193112397
 20
38.628771682
 11
39.0729663664
 21
38.628771682
  0
LINE
  8
0
 62
7
  6
CONTINUOUS
 10
51.8672332029
 20
38.7331531832
 11
50.7429580966
 21
38.7331531832
  0
LINE
  8
0
 62
7
  6
CONTINUOUS
 10
47.7789588132
 20
38.7331531832
 11
46.6546813676
 21
38.7331531832
  0
LINE
  8
0
 62
7
  6
CONTINUOUS
 10
60.2481996786
 20
38.7331531832
 11
62.1901315342
 21
38.7331531832
  0
LINE
  8
0
 62
7
  6
CONTINUOUS
 10
79.7881241706
 20
38.8375346843
 11
80.2991555452
 21
38.8375346843
  0
LINE
  8
0
 62
7
  6
CONTINUOUS
 10
45.27900139
 20
39.0462976866
 11
45.7900351039
 21
39.0462976866
  0
LINE
  8
0
 62
7
  6
CONTINUOUS
 10
49.367278119
 20
39.0462976866
 11
49.8783118329
 21
39.0462976866
  0
LINE
  8
0
 62
7
  6
CONTINUOUS
 10
62.3005631839
 20
39.3594421901
 11
60.3586313282
 21
39.3594421901
  0
LINE
  8
0
 62
7
  6
CONTINUOUS
 10
30.43041547
 20
39.4638236912
 11
30.6348290726
 21
39.4638236912
  0
LINE
  8
0
 62
7
  6
CONTINUOUS
 10
31.963518951
 20
39.4638236912
 11
32.2701396472
 21
39.4638236912
  0
LINE
  8
0
 62
7
  6
CONTINUOUS
 10
35.0297253281
 20
39.4638236912
 11
35.2341395155
 21
39.4638236912
  0
LINE
  8
0
 62
7
  6
CONTINUOUS
 10
36.5628288091
 20
39.4638236912
 11
36.8694495052
 21
39.4638236912
  0
LINE
  8
0
 62
7
  6
CONTINUOUS
 10
46.5791052746
 20
39.4638236912
 11
47.192346667
 21
39.4638236912
  0
LINE
  8
0
 62
7
  6
CONTINUOUS
 10
50.6673820036
 20
39.4638236912
 11
51.2806233959
 21
39.4638236912
  0
LINE
  8
0
 62
7
  6
CONTINUOUS
 10
69.7800728459
 20
39.4638236912
 11
70.5977249166
 21
39.4638236912
  0
LINE
  8
0
 62
7
  6
CONTINUOUS
 10
71.1087609699
 20
39.4638236912
 11
72.2330384155
 21
39.4638236912
  0
LINE
  8
0
 62
7
  6
CONTINUOUS
 10
83.1405892211
 20
39.8813496958
 11
82.7317631857
 21
39.8813496958
  0
LINE
  8
0
 62
7
  6
CONTINUOUS
 10
72.3066595152
 20
39.8813496958
 11
71.1823820696
 21
39.8813496958
  0
LINE
  8
0
 62
7
  6
CONTINUOUS
 10
70.6713460164
 20
39.8813496958
 11
69.8536939457
 21
39.8813496958
  0
LINE
  8
0
 62
7
  6
CONTINUOUS
 10
51.3542444957
 20
39.8813496958
 11
50.7410031033
 21
39.8813496958
  0
LINE
  8
0
 62
7
  6
CONTINUOUS
 10
47.2659677667
 20
39.8813496958
 11
46.6527263743
 21
39.8813496958
  0
LINE
  8
0
 62
7
  6
CONTINUOUS
 10
43.2798987162
 20
39.8813496958
 11
42.7688638327
 21
39.8813496958
  0
LINE
  8
0
 62
7
  6
CONTINUOUS
 10
37.1474847923
 20
39.8813496958
 11
36.7386575873
 21
39.8813496958
  0
LINE
  8
0
 62
7
  6
CONTINUOUS
 10
35.5121748026
 20
39.8813496958
 11
35.1033464279
 21
39.8813496958
  0
LINE
  8
0
 62
7
  6
CONTINUOUS
 10
34.592312714
 20
39.8813496958
 11
34.0812778304
 21
39.8813496958
  0
LINE
  8
0
 62
7
  6
CONTINUOUS
 10
32.5481743495
 20
39.8813496958
 11
32.1393465596
 21
39.8813496958
  0
LINE
  8
0
 62
7
  6
CONTINUOUS
 10
30.9128637748
 20
39.8813496958
 11
30.5040365698
 21
39.8813496958
  0
LINE
  8
0
 62
7
  6
CONTINUOUS
 10
29.9930016862
 20
39.8813496958
 11
29.4819673876
 21
39.8813496958
  0
LINE
  8
0
 62
7
  6
CONTINUOUS
 10
71.3296243207
 20
40.7164019975
 11
70.8185882675
 21
40.7164019975
  0
LINE
  8
0
 62
7
  6
CONTINUOUS
 10
60.6163052289
 20
40.8207834987
 11
62.5582370846
 21
40.8207834987
  0
LINE
  8
0
 62
7
  6
CONTINUOUS
 10
64.9904406259
 20
36.6455228768
 11
65.5852767418
 21
36.5411413665
  0
LINE
  8
0
 62
7
  6
CONTINUOUS
 10
47.8608038842
 20
39.7769681947
 11
47.2659677667
 21
39.8813496958
  0
LINE
  8
0
 62
7
  6
CONTINUOUS
 10
51.9490806131
 20
39.7769681947
 11
51.3542444957
 21
39.8813496958
  0
LINE
  8
0
 62
7
  6
CONTINUOUS
 10
70.9184391927
 20
36.6455228768
 11
71.5132753085
 21
36.5411413665
  0
LINE
  8
0
 62
7
  6
CONTINUOUS
 10
73.6780254584
 20
36.6455228768
 11
74.2728615743
 21
36.5411413665
  0
LINE
  8
0
 62
7
  6
CONTINUOUS
 10
47.192346667
 20
39.4638236912
 11
47.5827697667
 21
39.3594421901
  0
LINE
  8
0
 62
7
  6
CONTINUOUS
 10
51.2806233959
 20
39.4638236912
 11
51.6710441564
 21
39.3594421901
  0
LINE
  8
0
 62
7
  6
CONTINUOUS
 10
47.5827697667
 20
39.3594421901
 11
47.7687775094
 21
39.255060689
  0
LINE
  8
0
 62
7
  6
CONTINUOUS
 10
51.6710441564
 20
39.3594421901
 11
51.8570542384
 21
39.255060689
  0
LINE
  8
0
 62
7
  6
CONTINUOUS
 10
48.1306140304
 20
39.5682051924
 11
47.8608038842
 21
39.7769681947
  0
LINE
  8
0
 62
7
  6
CONTINUOUS
 10
48.2982164983
 20
39.3594421901
 11
48.1306140304
 21
39.5682051924
  0
LINE
  8
0
 62
7
  6
CONTINUOUS
 10
49.6492245238
 20
37.1674304465
 11
49.5838273952
 21
37.3761934488
  0
LINE
  8
0
 62
7
  6
CONTINUOUS
 10
51.6197406092
 20
36.7499043871
 11
51.6851377346
 21
36.5411413665
  0
LINE
  8
0
 62
7
  6
CONTINUOUS
 10
51.5727487652
 20
37.0630489454
 11
51.6197406092
 21
36.7499043871
  0
LINE
  8
0
 62
7
  6
CONTINUOUS
 10
52.1491796013
 20
36.8542859065
 11
52.1390006432
 21
37.3761934488
  0
LINE
  8
0
 62
7
  6
CONTINUOUS
 10
51.9224490277
 20
39.0462976866
 11
51.8672332029
 21
38.7331531832
  0
LINE
  8
0
 62
7
  6
CONTINUOUS
 10
51.7936120773
 20
38.3156270323
 11
51.6831804277
 21
37.6893380254
  0
LINE
  8
0
 62
7
  6
CONTINUOUS
 10
52.1390006432
 20
37.3761934488
 11
52.4334850809
 21
39.0462976866
  0
LINE
  8
0
 62
7
  6
CONTINUOUS
 10
53.8788738839
 20
41.4470725056
 11
53.0138258585
 21
36.5411413665
  0
LINE
  8
0
 62
7
  6
CONTINUOUS
 10
53.5248619117
 20
36.5411413665
 11
54.3899099371
 21
41.4470725056
  0
LINE
  8
0
 62
7
  6
CONTINUOUS
 10
51.6831804277
 20
37.6893380254
 11
51.5441645386
 21
37.4805750231
  0
LINE
  8
0
 62
7
  6
CONTINUOUS
 10
51.4337328697
 20
36.8542859065
 11
51.5727487652
 21
37.0630489454
  0
LINE
  8
0
 62
7
  6
CONTINUOUS
 10
62.8585887514
 20
39.0462976866
 11
63.0814070441
 21
39.1506791878
  0
LINE
  8
0
 62
7
  6
CONTINUOUS
 10
62.625589155
 20
39.4638236912
 11
62.3005631839
 21
39.3594421901
  0
LINE
  8
0
 62
7
  6
CONTINUOUS
 10
65.5425989241
 20
39.7769681947
 11
65.2175729529
 21
39.6725866936
  0
LINE
  8
0
 62
7
  6
CONTINUOUS
 10
62.2390783426
 20
37.2718119477
 11
61.9140523714
 21
37.1674304465
  0
LINE
  8
0
 62
7
  6
CONTINUOUS
 10
39.8150446834
 20
39.3594421901
 11
40.2422771634
 21
39.4638236912
  0
LINE
  8
0
 62
7
  6
CONTINUOUS
 10
40.4181059416
 20
39.8813496958
 11
39.7864592743
 21
39.7769681947
  0
LINE
  8
0
 62
7
  6
CONTINUOUS
 10
31.5056940938
 20
41.2529195848
 11
37.569965824
 21
41.2529195848
  0
LINE
  8
0
 62
7
  6
CONTINUOUS
 10
82.0879802728
 20
41.4470725056
 11
81.5769442196
 21
41.4470725056
  0
LINE
  8
0
 62
7
  6
CONTINUOUS
 10
69.312116372
 20
41.4470725056
 11
68.8010803188
 21
41.4470725056
  0
LINE
  8
0
 62
7
  6
CONTINUOUS
 10
62.5664610557
 20
41.4470725056
 11
60.1134954862
 21
41.4470725056
  0
LINE
  8
0
 62
7
  6
CONTINUOUS
 10
54.3899099371
 20
41.4470725056
 11
53.8788738839
 21
41.4470725056
  0
LINE
  8
0
 62
7
  6
CONTINUOUS
 10
27.3050809937
 20
41.4470725056
 11
26.4874258526
 21
41.4470725056
  0
LINE
  8
0
 62
7
  6
CONTINUOUS
 10
77.7662998481
 20
36.6455228768
 11
78.3611359639
 21
36.5411413665
  0
LINE
  8
0
 62
7
  6
CONTINUOUS
 10
65.9984144738
 20
39.4638236912
 11
66.5932505912
 21
39.3594421901
  0
LINE
  8
0
 62
7
  6
CONTINUOUS
 10
66.7690817088
 20
39.7769681947
 11
66.1742455914
 21
39.8813496958
  0
LINE
  8
0
 62
7
  6
CONTINUOUS
 10
71.5868964147
 20
36.9586674077
 11
71.0942656429
 21
37.0630489454
  0
LINE
  8
0
 62
7
  6
CONTINUOUS
 10
65.5566878301
 20
36.9586674077
 11
65.1662670762
 21
37.0630489454
  0
LINE
  8
0
 62
7
  6
CONTINUOUS
 10
64.7022252063
 20
36.7499043871
 11
64.9904406259
 21
36.6455228768
  0
LINE
  8
0
 62
7
  6
CONTINUOUS
 10
62.1901315342
 20
38.7331531832
 11
62.4783469555
 21
38.628771682
  0
LINE
  8
0
 62
7
  6
CONTINUOUS
 10
52.2188907594
 20
39.5682051924
 11
51.9490806131
 21
39.7769681947
  0
LINE
  8
0
 62
7
  6
CONTINUOUS
 10
52.3864932272
 20
39.3594421901
 11
52.2188907594
 21
39.5682051924
  0
LINE
  8
0
 62
7
  6
CONTINUOUS
 10
51.8570542384
 20
39.255060689
 11
51.9224490277
 21
39.0462976866
  0
LINE
  8
0
 62
7
  6
CONTINUOUS
 10
52.1961714485
 20
36.5411413665
 11
52.1491796013
 21
36.8542859065
  0
LINE
  8
0
 62
7
  6
CONTINUOUS
 10
52.4334850809
 20
39.0462976866
 11
52.3864932272
 21
39.3594421901
  0
LINE
  8
0
 62
7
  6
CONTINUOUS
 10
65.2175729529
 20
39.6725866936
 11
64.8741417069
 21
39.4638236912
  0
LINE
  8
0
 62
7
  6
CONTINUOUS
 10
65.3483625315
 20
39.255060689
 11
65.5711831635
 21
39.3594421901
  0
LINE
  8
0
 62
7
  6
CONTINUOUS
 10
74.2301837566
 20
39.7769681947
 11
73.9051577855
 21
39.6725866936
  0
LINE
  8
0
 62
7
  6
CONTINUOUS
 10
78.3184581462
 20
39.7769681947
 11
77.9934321752
 21
39.6725866936
  0
LINE
  8
0
 62
7
  6
CONTINUOUS
 10
78.7742783747
 20
39.4638236912
 11
79.4713198313
 21
39.3594421901
  0
LINE
  8
0
 62
7
  6
CONTINUOUS
 10
79.6471509489
 20
39.7769681947
 11
78.9501048136
 21
39.8813496958
  0
LINE
  8
0
 62
7
  6
CONTINUOUS
 10
74.686003985
 20
39.4638236912
 11
75.2808401024
 21
39.3594421901
  0
LINE
  8
0
 62
7
  6
CONTINUOUS
 10
75.4566665414
 20
39.7769681947
 11
74.8618304239
 21
39.8813496958
  0
LINE
  8
0
 62
7
  6
CONTINUOUS
 10
63.0590894947
 20
41.3426910045
 11
62.5664610557
 21
41.4470725056
  0
LINE
  8
0
 62
7
  6
CONTINUOUS
 10
74.2442773413
 20
36.9586674077
 11
73.8538519086
 21
37.0630489454
  0
LINE
  8
0
 62
7
  6
CONTINUOUS
 10
70.6302237731
 20
36.7499043871
 11
70.9184391927
 21
36.6455228768
  0
LINE
  8
0
 62
7
  6
CONTINUOUS
 10
73.3898100388
 20
36.7499043871
 11
73.6780254584
 21
36.6455228768
  0
LINE
  8
0
 62
7
  6
CONTINUOUS
 10
62.5582370846
 20
40.8207834987
 11
62.8464525059
 21
40.7164019975
  0
LINE
  8
0
 62
7
  6
CONTINUOUS
 10
65.1662670762
 20
37.0630489454
 11
64.980256994
 21
37.1674304465
  0
LINE
  8
0
 62
7
  6
CONTINUOUS
 10
63.0445964942
 20
38.9419161854
 11
62.8585887514
 21
39.0462976866
  0
LINE
  8
0
 62
7
  6
CONTINUOUS
 10
63.0814070441
 20
39.1506791878
 11
63.46164884
 21
39.5682051924
  0
LINE
  8
0
 62
7
  6
CONTINUOUS
 10
62.8668127226
 20
39.6725866936
 11
62.625589155
 21
39.4638236912
  0
LINE
  8
0
 62
7
  6
CONTINUOUS
 10
62.480301923
 20
37.4805750231
 11
62.2390783426
 21
37.2718119477
  0
LINE
  8
0
 62
7
  6
CONTINUOUS
 10
64.8741417069
 20
39.4638236912
 11
64.6329157999
 21
39.255060689
  0
LINE
  8
0
 62
7
  6
CONTINUOUS
 10
64.9865260105
 20
38.9419161854
 11
65.3483625315
 21
39.255060689
  0
LINE
  8
0
 62
7
  6
CONTINUOUS
 10
62.2308520209
 20
36.6455228768
 11
62.6948962252
 21
36.9586674077
  0
LINE
  8
0
 62
7
  6
CONTINUOUS
 10
66.6339757678
 20
37.2718119477
 11
66.2905445217
 21
37.0630489454
  0
LINE
  8
0
 62
7
  6
CONTINUOUS
 10
66.3191287498
 20
36.6455228768
 11
66.76476534
 21
36.8542859065
  0
LINE
  8
0
 62
7
  6
CONTINUOUS
 10
74.0359520428
 20
39.255060689
 11
74.258767996
 21
39.3594421901
  0
LINE
  8
0
 62
7
  6
CONTINUOUS
 10
82.658142086
 20
39.4638236912
 11
83.0485628464
 21
39.3594421901
  0
LINE
  8
0
 62
7
  6
CONTINUOUS
 10
77.4780844285
 20
36.7499043871
 11
77.7662998481
 21
36.6455228768
  0
LINE
  8
0
 62
7
  6
CONTINUOUS
 10
78.3325517309
 20
36.9586674077
 11
77.7561208949
 21
37.1674304465
  0
LINE
  8
0
 62
7
  6
CONTINUOUS
 10
64.4324150632
 20
36.9586674077
 11
64.7022252063
 21
36.7499043871
  0
LINE
  8
0
 62
7
  6
CONTINUOUS
 10
60.1134954862
 20
41.4470725056
 11
59.2484474609
 21
36.5411413665
  0
LINE
  8
0
 62
7
  6
CONTINUOUS
 10
59.9721205158
 20
37.1674304465
 11
60.2481996786
 21
38.7331531832
  0
LINE
  8
0
 62
7
  6
CONTINUOUS
 10
60.3586313282
 20
39.3594421901
 11
60.6163052289
 21
40.8207834987
  0
LINE
  8
0
 62
7
  6
CONTINUOUS
 10
63.0242362259
 20
39.985731197
 11
62.8668127226
 21
39.6725866936
  0
LINE
  8
0
 62
7
  6
CONTINUOUS
 10
63.46164884
 20
39.5682051924
 11
63.6190723433
 21
39.8813496958
  0
LINE
  8
0
 62
7
  6
CONTINUOUS
 10
62.6377254264
 20
37.7937195266
 11
62.480301923
 21
37.4805750231
  0
LINE
  8
0
 62
7
  6
CONTINUOUS
 10
64.6329157999
 20
39.255060689
 11
64.3548793432
 21
38.8375346843
  0
LINE
  8
0
 62
7
  6
CONTINUOUS
 10
62.6948962252
 20
36.9586674077
 11
63.0751380276
 21
37.3761934488
  0
LINE
  8
0
 62
7
  6
CONTINUOUS
 10
73.9051577855
 20
39.6725866936
 11
73.5617265394
 21
39.4638236912
  0
LINE
  8
0
 62
7
  6
CONTINUOUS
 10
78.1242264324
 20
39.255060689
 11
78.3470470643
 21
39.3594421901
  0
LINE
  8
0
 62
7
  6
CONTINUOUS
 10
75.0067135824
 20
36.6455228768
 11
75.4523548511
 21
36.8542859065
  0
LINE
  8
0
 62
7
  6
CONTINUOUS
 10
73.8538519086
 20
37.0630489454
 11
73.6678465052
 21
37.1674304465
  0
LINE
  8
0
 62
7
  6
CONTINUOUS
 10
67.2248972585
 20
39.4638236912
 11
66.7690817088
 21
39.7769681947
  0
LINE
  8
0
 62
7
  6
CONTINUOUS
 10
66.5932505912
 20
39.3594421901
 11
66.8630607375
 21
39.1506791878
  0
LINE
  8
0
 62
7
  6
CONTINUOUS
 10
70.36041363
 20
36.9586674077
 11
70.6302237731
 21
36.7499043871
  0
LINE
  8
0
 62
7
  6
CONTINUOUS
 10
71.0942656429
 20
37.0630489454
 11
70.8244554967
 21
37.2718119477
  0
LINE
  8
0
 62
7
  6
CONTINUOUS
 10
63.4127020445
 20
41.0295465009
 11
63.0590894947
 21
41.3426910045
  0
LINE
  8
0
 62
7
  6
CONTINUOUS
 10
62.4783469555
 20
38.628771682
 11
62.6459494233
 21
38.4200086797
  0
LINE
  8
0
 62
7
  6
CONTINUOUS
 10
64.2648102625
 20
37.1674304465
 11
64.4324150632
 21
36.9586674077
  0
LINE
  8
0
 62
7
  6
CONTINUOUS
 10
64.980256994
 20
37.1674304465
 11
64.7288521356
 21
37.4805750231
  0
LINE
  8
0
 62
7
  6
CONTINUOUS
 10
62.8464525059
 20
40.7164019975
 11
63.0140549736
 21
40.5076389952
  0
LINE
  8
0
 62
7
  6
CONTINUOUS
 10
63.0610467758
 20
40.1944941993
 11
63.0242362259
 21
39.985731197
  0
LINE
  8
0
 62
7
  6
CONTINUOUS
 10
62.6929412512
 20
38.10686403
 11
62.6377254264
 21
37.7937195266
  0
LINE
  8
0
 62
7
  6
CONTINUOUS
 10
63.2325615438
 20
37.6893380254
 11
63.3245879185
 21
38.2112455312
  0
LINE
  8
0
 62
7
  6
CONTINUOUS
 10
63.6190723433
 20
39.8813496958
 11
63.6926934947
 21
40.2988759929
  0
LINE
  8
0
 62
7
  6
CONTINUOUS
 10
64.3548793432
 20
38.8375346843
 11
64.1422423286
 21
38.2112455312
  0
LINE
  8
0
 62
7
  6
CONTINUOUS
 10
63.0751380276
 20
37.3761934488
 11
63.2325615438
 21
37.6893380254
  0
LINE
  8
0
 62
7
  6
CONTINUOUS
 10
64.8475101215
 20
38.7331531832
 11
64.9865260105
 21
38.9419161854
  0
LINE
  8
0
 62
7
  6
CONTINUOUS
 10
66.76476534
 20
36.8542859065
 11
67.1266018674
 21
37.1674304465
  0
LINE
  8
0
 62
7
  6
CONTINUOUS
 10
77.9934321752
 20
39.6725866936
 11
77.650000929
 21
39.4638236912
  0
LINE
  8
0
 62
7
  6
CONTINUOUS
 10
75.3215606003
 20
37.2718119477
 11
74.9781293543
 21
37.0630489454
  0
LINE
  8
0
 62
7
  6
CONTINUOUS
 10
79.0949926507
 20
36.6455228768
 11
79.5406292408
 21
36.8542859065
  0
LINE
  8
0
 62
7
  6
CONTINUOUS
 10
83.4288046424
 20
39.7769681947
 11
83.1405892211
 21
39.8813496958
  0
LINE
  8
0
 62
7
  6
CONTINUOUS
 10
73.1199998957
 20
36.9586674077
 11
73.3898100388
 21
36.7499043871
  0
LINE
  8
0
 62
7
  6
CONTINUOUS
 10
63.2775960906
 20
38.5243901808
 11
63.0445964942
 21
38.9419161854
  0
LINE
  8
0
 62
7
  6
CONTINUOUS
 10
63.645701641
 20
40.6120204963
 11
63.4127020445
 21
41.0295465009
  0
LINE
  8
0
 62
7
  6
CONTINUOUS
 10
64.1340160181
 20
37.5849565242
 11
64.2648102625
 21
37.1674304465
  0
LINE
  8
0
 62
7
  6
CONTINUOUS
 10
64.7288521356
 20
37.4805750231
 11
64.6634573463
 21
37.6893380254
  0
LINE
  8
0
 62
7
  6
CONTINUOUS
 10
62.6459494233
 20
38.4200086797
 11
62.6929412512
 21
38.10686403
  0
LINE
  8
0
 62
7
  6
CONTINUOUS
 10
63.3245879185
 20
38.2112455312
 11
63.2775960906
 21
38.5243901808
  0
LINE
  8
0
 62
7
  6
CONTINUOUS
 10
63.0140549736
 20
40.5076389952
 11
63.0610467758
 21
40.1944941993
  0
LINE
  8
0
 62
7
  6
CONTINUOUS
 10
63.6926934947
 20
40.2988759929
 11
63.645701641
 21
40.6120204963
  0
LINE
  8
0
 62
7
  6
CONTINUOUS
 10
64.1422423286
 20
38.2112455312
 11
64.1340160181
 21
37.5849565242
  0
LINE
  8
0
 62
7
  6
CONTINUOUS
 10
64.6164678319
 20
38.0024825289
 11
64.6532783818
 21
38.2112455312
  0
LINE
  8
0
 62
7
  6
CONTINUOUS
 10
64.8291048465
 20
38.628771682
 11
64.8475101215
 21
38.7331531832
  0
LINE
  8
0
 62
7
  6
CONTINUOUS
 10
67.1266018674
 20
37.1674304465
 11
67.3024329979
 21
37.5849565242
  0
LINE
  8
0
 62
7
  6
CONTINUOUS
 10
66.7913969447
 20
37.5849565242
 11
66.6339757678
 21
37.2718119477
  0
LINE
  8
0
 62
7
  6
CONTINUOUS
 10
73.5617265394
 20
39.4638236912
 11
73.3205006325
 21
39.255060689
  0
LINE
  8
0
 62
7
  6
CONTINUOUS
 10
73.6741155217
 20
38.9419161854
 11
74.0359520428
 21
39.255060689
  0
LINE
  8
0
 62
7
  6
CONTINUOUS
 10
82.3045271967
 20
39.7769681947
 11
81.9610959507
 21
39.5682051924
  0
LINE
  8
0
 62
7
  6
CONTINUOUS
 10
81.8874748509
 20
39.1506791878
 11
82.230906097
 21
39.3594421901
  0
LINE
  8
0
 62
7
  6
CONTINUOUS
 10
79.40983499
 20
37.2718119477
 11
79.0664037439
 21
37.0630489454
  0
LINE
  8
0
 62
7
  6
CONTINUOUS
 10
80.0191664343
 20
39.5682051924
 11
79.6471509489
 21
39.7769681947
  0
LINE
  8
0
 62
7
  6
CONTINUOUS
 10
83.0485628464
 20
39.3594421901
 11
83.2345729285
 21
39.255060689
  0
LINE
  8
0
 62
7
  6
CONTINUOUS
 10
75.9124867698
 20
39.4638236912
 11
75.4566665414
 21
39.7769681947
  0
LINE
  8
0
 62
7
  6
CONTINUOUS
 10
77.2082742854
 20
36.9586674077
 11
77.4780844285
 21
36.7499043871
  0
LINE
  8
0
 62
7
  6
CONTINUOUS
 10
75.2808401024
 20
39.3594421901
 11
75.5506502488
 21
39.1506791878
  0
LINE
  8
0
 62
7
  6
CONTINUOUS
 10
67.457896855
 20
39.0462976866
 11
67.2248972585
 21
39.4638236912
  0
LINE
  8
0
 62
7
  6
CONTINUOUS
 10
66.8630607375
 20
39.1506791878
 11
67.0122602698
 21
38.8375346843
  0
LINE
  8
0
 62
7
  6
CONTINUOUS
 10
64.6634573463
 20
37.6893380254
 11
64.6164678319
 21
38.0024825289
  0
LINE
  8
0
 62
7
  6
CONTINUOUS
 10
67.4864857731
 20
38.628771682
 11
67.457896855
 21
39.0462976866
  0
LINE
  8
0
 62
7
  6
CONTINUOUS
 10
67.0122602698
 20
38.8375346843
 11
66.9754497198
 21
38.628771682
  0
LINE
  8
0
 62
7
  6
CONTINUOUS
 10
67.4128646475
 20
38.2112455312
 11
67.4864857731
 21
38.628771682
  0
LINE
  8
0
 62
7
  6
CONTINUOUS
 10
68.8010803188
 20
41.4470725056
 11
67.9360322934
 21
36.5411413665
  0
LINE
  8
0
 62
7
  6
CONTINUOUS
 10
68.4470683466
 20
36.5411413665
 11
69.312116372
 21
41.4470725056
  0
LINE
  8
0
 62
7
  6
CONTINUOUS
 10
73.3205006325
 20
39.255060689
 11
73.0424688544
 21
38.8375346843
  0
LINE
  8
0
 62
7
  6
CONTINUOUS
 10
77.650000929
 20
39.4638236912
 11
77.4087797009
 21
39.255060689
  0
LINE
  8
0
 62
7
  6
CONTINUOUS
 10
77.7623899114
 20
38.9419161854
 11
78.1242264324
 21
39.255060689
  0
LINE
  8
0
 62
7
  6
CONTINUOUS
 10
75.4523548511
 20
36.8542859065
 11
75.8141913786
 21
37.1674304465
  0
LINE
  8
0
 62
7
  6
CONTINUOUS
 10
79.4713198313
 20
39.3594421901
 11
79.7411299776
 21
39.1506791878
  0
LINE
  8
0
 62
7
  6
CONTINUOUS
 10
72.952395095
 20
37.1674304465
 11
73.1199998957
 21
36.9586674077
  0
LINE
  8
0
 62
7
  6
CONTINUOUS
 10
73.6678465052
 20
37.1674304465
 11
73.4164416467
 21
37.4805750231
  0
LINE
  8
0
 62
7
  6
CONTINUOUS
 10
70.2296193792
 20
37.3761934488
 11
70.36041363
 21
36.9586674077
  0
LINE
  8
0
 62
7
  6
CONTINUOUS
 10
69.8536939457
 20
39.8813496958
 11
69.7800728459
 21
39.4638236912
  0
LINE
  8
0
 62
7
  6
CONTINUOUS
 10
70.8185882675
 20
40.7164019975
 11
70.6713460164
 21
39.8813496958
  0
LINE
  8
0
 62
7
  6
CONTINUOUS
 10
70.5977249166
 20
39.4638236912
 11
70.2296193792
 21
37.3761934488
  0
LINE
  8
0
 62
7
  6
CONTINUOUS
 10
70.7774659952
 20
37.5849565242
 11
71.1087609699
 21
39.4638236912
  0
LINE
  8
0
 62
7
  6
CONTINUOUS
 10
71.1823820696
 20
39.8813496958
 11
71.3296243207
 21
40.7164019975
  0
LINE
  8
0
 62
7
  6
CONTINUOUS
 10
71.5132753085
 20
36.5411413665
 11
71.5868964147
 21
36.9586674077
  0
LINE
  8
0
 62
7
  6
CONTINUOUS
 10
73.535094954
 20
38.7331531832
 11
73.6741155217
 21
38.9419161854
  0
LINE
  8
0
 62
7
  6
CONTINUOUS
 10
81.9610959507
 20
39.5682051924
 11
81.7198747224
 21
39.3594421901
  0
LINE
  8
0
 62
7
  6
CONTINUOUS
 10
81.6462536227
 20
38.9419161854
 11
81.8874748509
 21
39.1506791878
  0
LINE
  8
0
 62
7
  6
CONTINUOUS
 10
79.5406292408
 20
36.8542859065
 11
79.9024657682
 21
37.1674304465
  0
LINE
  8
0
 62
7
  6
CONTINUOUS
 10
83.6986147886
 20
39.5682051924
 11
83.4288046424
 21
39.7769681947
  0
LINE
  8
0
 62
7
  6
CONTINUOUS
 10
77.0406741633
 20
37.1674304465
 11
77.2082742854
 21
36.9586674077
  0
LINE
  8
0
 62
7
  6
CONTINUOUS
 10
77.7561208949
 20
37.1674304465
 11
77.5047160364
 21
37.4805750231
  0
LINE
  8
0
 62
7
  6
CONTINUOUS
 10
70.8244554967
 20
37.2718119477
 11
70.7774659952
 21
37.5849565242
  0
LINE
  8
0
 62
7
  6
CONTINUOUS
 10
72.8298271612
 20
38.2112455312
 11
72.8216055293
 21
37.5849565242
  0
LINE
  8
0
 62
7
  6
CONTINUOUS
 10
72.2330384155
 20
39.4638236912
 11
72.3066595152
 21
39.8813496958
  0
LINE
  8
0
 62
7
  6
CONTINUOUS
 10
73.3040526644
 20
38.0024825289
 11
73.3408632144
 21
38.2112455312
  0
LINE
  8
0
 62
7
  6
CONTINUOUS
 10
73.516689679
 20
38.628771682
 11
73.535094954
 21
38.7331531832
  0
LINE
  8
0
 62
7
  6
CONTINUOUS
 10
73.0424688544
 20
38.8375346843
 11
72.8298271612
 21
38.2112455312
  0
LINE
  8
0
 62
7
  6
CONTINUOUS
 10
75.4789817772
 20
37.5849565242
 11
75.3215606003
 21
37.2718119477
  0
LINE
  8
0
 62
7
  6
CONTINUOUS
 10
77.4087797009
 20
39.255060689
 11
77.1307432441
 21
38.8375346843
  0
LINE
  8
0
 62
7
  6
CONTINUOUS
 10
77.6233740223
 20
38.7331531832
 11
77.7623899114
 21
38.9419161854
  0
LINE
  8
0
 62
7
  6
CONTINUOUS
 10
80.2705713057
 20
39.255060689
 11
80.0191664343
 21
39.5682051924
  0
LINE
  8
0
 62
7
  6
CONTINUOUS
 10
76.1454863662
 20
39.0462976866
 11
75.9124867698
 21
39.4638236912
  0
LINE
  8
0
 62
7
  6
CONTINUOUS
 10
75.5506502488
 20
39.1506791878
 11
75.6998451023
 21
38.8375346843
  0
LINE
  8
0
 62
7
  6
CONTINUOUS
 10
72.8216055293
 20
37.5849565242
 11
72.952395095
 21
37.1674304465
  0
LINE
  8
0
 62
7
  6
CONTINUOUS
 10
73.4164416467
 20
37.4805750231
 11
73.3510421788
 21
37.6893380254
  0
LINE
  8
0
 62
7
  6
CONTINUOUS
 10
73.3510421788
 20
37.6893380254
 11
73.3040526644
 21
38.0024825289
  0
LINE
  8
0
 62
7
  6
CONTINUOUS
 10
76.1740706056
 20
38.628771682
 11
76.1454863662
 21
39.0462976866
  0
LINE
  8
0
 62
7
  6
CONTINUOUS
 10
75.6998451023
 20
38.8375346843
 11
75.6630345524
 21
38.628771682
  0
LINE
  8
0
 62
7
  6
CONTINUOUS
 10
76.1004494801
 20
38.2112455312
 11
76.1740706056
 21
38.628771682
  0
LINE
  8
0
 62
7
  6
CONTINUOUS
 10
77.1307432441
 20
38.8375346843
 11
76.9181062295
 21
38.2112455312
  0
LINE
  8
0
 62
7
  6
CONTINUOUS
 10
75.8141913786
 20
37.1674304465
 11
75.9900178304
 21
37.5849565242
  0
LINE
  8
0
 62
7
  6
CONTINUOUS
 10
77.4475428789
 20
38.3156270323
 11
77.6233740223
 21
38.7331531832
  0
LINE
  8
0
 62
7
  6
CONTINUOUS
 10
83.2345729285
 20
39.255060689
 11
83.402173057
 21
39.0462976866
  0
LINE
  8
0
 62
7
  6
CONTINUOUS
 10
76.909879919
 20
37.5849565242
 11
77.0406741633
 21
37.1674304465
  0
LINE
  8
0
 62
7
  6
CONTINUOUS
 10
76.9181062295
 20
38.2112455312
 11
76.909879919
 21
37.5849565242
  0
LINE
  8
0
 62
7
  6
CONTINUOUS
 10
77.3923270541
 20
38.0024825289
 11
77.4475428789
 21
38.3156270323
  0
LINE
  8
0
 62
7
  6
CONTINUOUS
 10
79.9024657682
 20
37.1674304465
 11
80.0782922201
 21
37.5849565242
  0
LINE
  8
0
 62
7
  6
CONTINUOUS
 10
79.5672608455
 20
37.5849565242
 11
79.40983499
 21
37.2718119477
  0
LINE
  8
0
 62
7
  6
CONTINUOUS
 10
83.8662195958
 20
39.3594421901
 11
83.6986147886
 21
39.5682051924
  0
LINE
  8
0
 62
7
  6
CONTINUOUS
 10
77.5047160364
 20
37.4805750231
 11
77.3923270541
 21
38.0024825289
  0
LINE
  8
0
 62
7
  6
CONTINUOUS
 10
80.2991555452
 20
38.8375346843
 11
80.2705713057
 21
39.255060689
  0
LINE
  8
0
 62
7
  6
CONTINUOUS
 10
81.5769442196
 20
41.4470725056
 11
80.7118961943
 21
36.5411413665
  0
LINE
  8
0
 62
7
  6
CONTINUOUS
 10
81.2229322475
 20
36.5411413665
 11
81.6462536227
 21
38.9419161854
  0
LINE
  8
0
 62
7
  6
CONTINUOUS
 10
81.7198747224
 20
39.3594421901
 11
82.0879802728
 21
41.4470725056
  0
LINE
  8
0
 62
7
  6
CONTINUOUS
 10
79.7411299776
 20
39.1506791878
 11
79.7881241706
 21
38.8375346843
  0
LINE
  8
0
 62
7
  6
CONTINUOUS
 10
83.402173057
 20
39.0462976866
 11
83.4307619751
 21
38.628771682
  0
LINE
  8
0
 62
7
  6
CONTINUOUS
 10
83.9417933496
 20
38.628771682
 11
83.9316143851
 21
39.1506791878
  0
LINE
  8
0
 62
7
  6
CONTINUOUS
 10
83.4307619751
 20
38.628771682
 11
83.0626564247
 21
36.5411413665
  0
LINE
  8
0
 62
7
  6
CONTINUOUS
 10
83.5736877992
 20
36.5411413665
 11
83.9417933496
 21
38.628771682
  0
LINE
  8
0
 62
7
  6
CONTINUOUS
 10
83.9316143851
 20
39.1506791878
 11
83.8662195958
 21
39.3594421901
  0
ARC
  8
0
 62
7
  6
CONTINUOUS
 10
17.6372679473
 20
44.1448935957
 40
2.2642745169
 50
108.0107581108
 51
165.5109071299
  0
ARC
  8
0
 62
7
  6
CONTINUOUS
 10
15.4016946983
 20
37.3037824409
 40
2.1918177324
 50
108.0107581108
 51
131.2463042362
  0
ARC
  8
0
 62
7
  6
CONTINUOUS
 10
30.9155698207
 20
48.9382179979
 40
2.1737035363
 50
348.0107581108
 51
4.0059063308
  0
ARC
  8
0
 62
7
  6
CONTINUOUS
 10
35.8581686594
 20
43.6077650824
 40
2.1737035363
 50
347.7134320826
 51
47.5593061332
  0
ARC
  8
0
 62
7
  6
CONTINUOUS
 10
26.2993972219
 20
27.9233446294
 40
2.1737035363
 50
227.8352992885
 51
285.0236425378
  0
ARC
  8
0
 62
7
  6
CONTINUOUS
 10
33.1517804396
 20
29.4786955783
 40
2.1737035363
 50
227.5593061332
 51
255.9404932861
  0
ARC
  8
0
 62
7
  6
CONTINUOUS
 10
30.9155717096
 20
48.9382214796
 40
1.8114196136
 50
348.0107581108
 51
108.0107581108
  0
ARC
  8
0
 62
7
  6
CONTINUOUS
 10
33.1517804396
 20
29.4786955783
 40
1.8114196136
 50
227.5593061332
 51
347.7134320826
  0
ARC
  8
0
 62
7
  6
CONTINUOUS
 10
15.4016946983
 20
37.3037824409
 40
1.8114196136
 50
108.0107581108
 51
227.8352992885
  0
SOLID
  8
0
 62
7
  6
CONTINUOUS
 10
63.4127020445
 20
41.0295465009
 11
60.6163052289
 21
40.8207812288
 12
63.0590894947
 22
41.3426910045
 13
63.0590894947
 23
41.3426910045
  0
SOLID
  8
0
 62
7
  6
CONTINUOUS
 10
63.0590894947
 20
41.3426910045
 11
60.6163052289
 21
40.8207812288
 12
62.5664610557
 22
41.447072398
 13
62.5664610557
 23
41.447072398
  0
SOLID
  8
0
 62
7
  6
CONTINUOUS
 10
60.6163052289
 20
40.8207812288
 11
60.1134954862
 21
41.447072398
 12
62.5664610557
 22
41.447072398
 13
62.5664610557
 23
41.447072398
  0
SOLID
  8
0
 62
7
  6
CONTINUOUS
 10
60.6163052289
 20
40.8207812288
 11
63.4127020445
 21
41.0295465009
 12
62.5582370846
 22
40.8207812288
 13
62.5582370846
 23
40.8207812288
  0
SOLID
  8
0
 62
7
  6
CONTINUOUS
 10
62.5582370846
 20
40.8207812288
 11
63.4127020445
 21
41.0295465009
 12
62.8464525059
 22
40.7164019975
 13
62.8464525059
 23
40.7164019975
  0
SOLID
  8
0
 62
7
  6
CONTINUOUS
 10
63.4127020445
 20
41.0295465009
 11
63.645701641
 21
40.6120204963
 12
62.8464525059
 22
40.7164019975
 13
62.8464525059
 23
40.7164019975
  0
SOLID
  8
0
 62
7
  6
CONTINUOUS
 10
63.0140549736
 20
40.5076389952
 11
62.8464525059
 21
40.7164019975
 12
63.645701641
 22
40.6120204963
 13
63.645701641
 23
40.6120204963
  0
SOLID
  8
0
 62
7
  6
CONTINUOUS
 10
63.645701641
 20
40.6120204963
 11
63.6926934947
 21
40.2988759929
 12
63.0140549736
 22
40.5076389952
 13
63.0140549736
 23
40.5076389952
  0
SOLID
  8
0
 62
7
  6
CONTINUOUS
 10
63.0610467758
 20
40.1944941993
 11
63.0140549736
 21
40.5076389952
 12
63.6926934947
 22
40.2988759929
 13
63.6926934947
 23
40.2988759929
  0
SOLID
  8
0
 62
7
  6
CONTINUOUS
 10
63.0610467758
 20
40.1944941993
 11
63.6926934947
 21
40.2988759929
 12
63.0242362259
 22
39.985731197
 13
63.0242362259
 23
39.985731197
  0
SOLID
  8
0
 62
7
  6
CONTINUOUS
 10
63.6926934947
 20
40.2988759929
 11
63.6190723433
 21
39.8813496958
 12
63.0242362259
 22
39.985731197
 13
63.0242362259
 23
39.985731197
  0
SOLID
  8
0
 62
7
  6
CONTINUOUS
 10
62.8668127226
 20
39.6725866936
 11
63.0242362259
 21
39.985731197
 12
63.6190723433
 22
39.8813496958
 13
63.6190723433
 23
39.8813496958
  0
SOLID
  8
0
 62
7
  6
CONTINUOUS
 10
63.6190723433
 20
39.8813496958
 11
63.46164884
 21
39.5682051924
 12
62.8668127226
 22
39.6725866936
 13
62.8668127226
 23
39.6725866936
  0
SOLID
  8
0
 62
7
  6
CONTINUOUS
 10
62.625589155
 20
39.4638236912
 11
62.8668127226
 21
39.6725866936
 12
63.46164884
 22
39.5682051924
 13
63.46164884
 23
39.5682051924
  0
SOLID
  8
0
 62
7
  6
CONTINUOUS
 10
62.625589155
 20
39.4638236912
 11
63.46164884
 21
39.5682051924
 12
62.3005631839
 22
39.3594417086
 13
62.3005631839
 23
39.3594417086
  0
SOLID
  8
0
 62
7
  6
CONTINUOUS
 10
63.46164884
 20
39.5682051924
 11
63.0814070441
 21
39.1506791878
 12
62.3005631839
 22
39.3594417086
 13
62.3005631839
 23
39.3594417086
  0
SOLID
  8
0
 62
7
  6
CONTINUOUS
 10
63.0814070441
 20
39.1506791878
 11
60.2481996786
 21
38.7331517292
 12
62.3005631839
 22
39.3594417086
 13
62.3005631839
 23
39.3594417086
  0
SOLID
  8
0
 62
7
  6
CONTINUOUS
 10
62.3005631839
 20
39.3594417086
 11
60.2481996786
 21
38.7331517292
 12
60.3586313282
 22
39.3594417086
 13
60.3586313282
 23
39.3594417086
  0
SOLID
  8
0
 62
7
  6
CONTINUOUS
 10
59.2484474609
 20
36.5411424488
 11
60.3586313282
 21
39.3594417086
 12
60.2481996786
 22
38.7331517292
 13
60.2481996786
 23
38.7331517292
  0
SOLID
  8
0
 62
7
  6
CONTINUOUS
 10
63.0445964942
 20
38.9419161854
 11
60.2481996786
 21
38.7331528819
 12
62.8585887514
 22
39.0462976866
 13
62.8585887514
 23
39.0462976866
  0
SOLID
  8
0
 62
7
  6
CONTINUOUS
 10
60.2481996786
 20
38.7331528819
 11
63.0814070441
 21
39.1506791878
 12
62.8585887514
 22
39.0462976866
 13
62.8585887514
 23
39.0462976866
  0
SOLID
  8
0
 62
7
  6
CONTINUOUS
 10
60.2481996786
 20
38.7331528819
 11
63.0445964942
 21
38.9419161854
 12
62.1901315342
 22
38.7331528819
 13
62.1901315342
 23
38.7331528819
  0
SOLID
  8
0
 62
7
  6
CONTINUOUS
 10
62.1901315342
 20
38.7331528819
 11
63.0445964942
 21
38.9419161854
 12
62.4783469555
 22
38.628771682
 13
62.4783469555
 23
38.628771682
  0
SOLID
  8
0
 62
7
  6
CONTINUOUS
 10
63.0445964942
 20
38.9419161854
 11
63.2775960906
 21
38.5243901808
 12
62.4783469555
 22
38.628771682
 13
62.4783469555
 23
38.628771682
  0
SOLID
  8
0
 62
7
  6
CONTINUOUS
 10
62.6459494233
 20
38.4200086797
 11
62.4783469555
 21
38.628771682
 12
63.2775960906
 22
38.5243901808
 13
63.2775960906
 23
38.5243901808
  0
SOLID
  8
0
 62
7
  6
CONTINUOUS
 10
63.2775960906
 20
38.5243901808
 11
63.3245879185
 21
38.2112455312
 12
62.6459494233
 22
38.4200086797
 13
62.6459494233
 23
38.4200086797
  0
SOLID
  8
0
 62
7
  6
CONTINUOUS
 10
62.6929412512
 20
38.10686403
 11
62.6459494233
 21
38.4200086797
 12
63.3245879185
 22
38.2112455312
 13
63.3245879185
 23
38.2112455312
  0
SOLID
  8
0
 62
7
  6
CONTINUOUS
 10
62.6929412512
 20
38.10686403
 11
63.3245879185
 21
38.2112455312
 12
62.6377254264
 22
37.7937195266
 13
62.6377254264
 23
37.7937195266
  0
SOLID
  8
0
 62
7
  6
CONTINUOUS
 10
63.3245879185
 20
38.2112455312
 11
63.2325615438
 21
37.6893380254
 12
62.6377254264
 22
37.7937195266
 13
62.6377254264
 23
37.7937195266
  0
SOLID
  8
0
 62
7
  6
CONTINUOUS
 10
62.480301923
 20
37.4805750231
 11
62.6377254264
 21
37.7937195266
 12
63.2325615438
 22
37.6893380254
 13
63.2325615438
 23
37.6893380254
  0
SOLID
  8
0
 62
7
  6
CONTINUOUS
 10
63.2325615438
 20
37.6893380254
 11
63.0751380276
 21
37.3761934488
 12
62.480301923
 22
37.4805750231
 13
62.480301923
 23
37.4805750231
  0
SOLID
  8
0
 62
7
  6
CONTINUOUS
 10
62.2390783426
 20
37.2718119477
 11
62.480301923
 21
37.4805750231
 12
63.0751380276
 22
37.3761934488
 13
63.0751380276
 23
37.3761934488
  0
SOLID
  8
0
 62
7
  6
CONTINUOUS
 10
62.2390783426
 20
37.2718119477
 11
63.0751380276
 21
37.3761934488
 12
61.9140523714
 22
37.1674282289
 13
61.9140523714
 23
37.1674282289
  0
SOLID
  8
0
 62
7
  6
CONTINUOUS
 10
63.0751380276
 20
37.3761934488
 11
62.6948962252
 21
36.9586674077
 12
61.9140523714
 22
37.1674282289
 13
61.9140523714
 23
37.1674282289
  0
SOLID
  8
0
 62
7
  6
CONTINUOUS
 10
62.6948962252
 20
36.9586674077
 11
59.2484474609
 21
36.5411424488
 12
61.9140523714
 22
37.1674282289
 13
61.9140523714
 23
37.1674282289
  0
SOLID
  8
0
 62
7
  6
CONTINUOUS
 10
59.2484474609
 20
36.5411424488
 11
59.9721205158
 21
37.1674282289
 12
61.9140523714
 22
37.1674282289
 13
61.9140523714
 23
37.1674282289
  0
SOLID
  8
0
 62
7
  6
CONTINUOUS
 10
62.2308520209
 20
36.6455228768
 11
61.7014130304
 21
36.5411424488
 12
62.6948962252
 22
36.9586674077
 13
59.2484474609
 23
36.5411424488
  0
SOLID
  8
0
 62
7
  6
CONTINUOUS
 10
59.9721205158
 20
37.1674287121
 11
59.2484474609
 21
36.5411424488
 12
60.2481996786
 22
38.7331517292
 13
60.2481996786
 23
38.7331517292
  0
SOLID
  8
0
 62
7
  6
CONTINUOUS
 10
60.3586313282
 20
39.3594428984
 11
59.2484474609
 21
36.5411424488
 12
60.6163052289
 22
40.8207824187
 13
60.1134954862
 23
41.4470735879
  0
SOLID
  8
0
 62
7
  6
CONTINUOUS
 10
66.1742455914
 20
39.8813496958
 11
66.7690817088
 21
39.7769688889
 12
65.5425989241
 22
39.7769688889
 13
65.5425989241
 23
39.7769688889
  0
SOLID
  8
0
 62
7
  6
CONTINUOUS
 10
65.2175729529
 20
39.6725866936
 11
65.5425989241
 21
39.7769688889
 12
66.7690817088
 22
39.7769688889
 13
66.7690817088
 23
39.7769688889
  0
SOLID
  8
0
 62
7
  6
CONTINUOUS
 10
65.2175729529
 20
39.6725866936
 11
66.7690817088
 21
39.7769688889
 12
64.8741417069
 22
39.4638235009
 13
64.8741417069
 23
39.4638235009
  0
SOLID
  8
0
 62
7
  6
CONTINUOUS
 10
64.8741417069
 20
39.4638235009
 11
66.7690817088
 21
39.7769688889
 12
65.9984144738
 22
39.4638235009
 13
65.9984144738
 23
39.4638235009
  0
SOLID
  8
0
 62
7
  6
CONTINUOUS
 10
66.7690817088
 20
39.7769688889
 11
67.2248972585
 21
39.4638235009
 12
65.9984144738
 22
39.4638235009
 13
65.9984144738
 23
39.4638235009
  0
SOLID
  8
0
 62
7
  6
CONTINUOUS
 10
66.5932505912
 20
39.3594419826
 11
65.9984144738
 21
39.4638235009
 12
67.2248972585
 22
39.4638235009
 13
67.2248972585
 23
39.4638235009
  0
SOLID
  8
0
 62
7
  6
CONTINUOUS
 10
64.6329157999
 20
39.2550604723
 11
64.8741417069
 21
39.4638235009
 12
65.9984144738
 22
39.4638235009
 13
65.9984144738
 23
39.4638235009
  0
SOLID
  8
0
 62
7
  6
CONTINUOUS
 10
66.5932505912
 20
39.3594419826
 11
67.2248972585
 21
39.4638235009
 12
66.8630607375
 22
39.1506791878
 13
66.8630607375
 23
39.1506791878
  0
SOLID
  8
0
 62
7
  6
CONTINUOUS
 10
67.2248972585
 20
39.4638235009
 11
67.457896855
 21
39.0462976866
 12
66.8630607375
 22
39.1506791878
 13
66.8630607375
 23
39.1506791878
  0
SOLID
  8
0
 62
7
  6
CONTINUOUS
 10
67.0122602698
 20
38.8375350213
 11
66.8630607375
 21
39.1506791878
 12
67.457896855
 22
39.0462976866
 13
67.457896855
 23
39.0462976866
  0
SOLID
  8
0
 62
7
  6
CONTINUOUS
 10
67.0122602698
 20
38.8375350213
 11
67.457896855
 21
39.0462976866
 12
66.9754497198
 22
38.6287721948
 13
66.9754497198
 23
38.6287721948
  0
SOLID
  8
0
 62
7
  6
CONTINUOUS
 10
67.457896855
 20
39.0462976866
 11
67.4864857731
 21
38.6287721948
 12
66.9754497198
 22
38.6287721948
 13
66.9754497198
 23
38.6287721948
  0
SOLID
  8
0
 62
7
  6
CONTINUOUS
 10
67.4864857731
 20
38.6287721948
 11
64.1422423286
 21
38.2112442454
 12
66.9754497198
 22
38.6287721948
 13
66.9754497198
 23
38.6287721948
  0
SOLID
  8
0
 62
7
  6
CONTINUOUS
 10
66.9754497198
 20
38.6287721948
 11
64.1422423286
 21
38.2112442454
 12
64.8291048465
 22
38.6287721948
 13
64.8291048465
 23
38.6287721948
  0
SOLID
  8
0
 62
7
  6
CONTINUOUS
 10
64.8291048465
 20
38.6287721948
 11
64.1422423286
 21
38.2112442454
 12
64.8475101215
 22
38.7331531832
 13
64.8475101215
 23
38.7331531832
  0
SOLID
  8
0
 62
7
  6
CONTINUOUS
 10
64.1422423286
 20
38.2112442454
 11
64.3548793432
 21
38.8375350213
 12
64.8475101215
 22
38.7331531832
 13
64.8475101215
 23
38.7331531832
  0
SOLID
  8
0
 62
7
  6
CONTINUOUS
 10
64.1422423286
 20
38.2112442454
 11
67.4864857731
 21
38.6287721948
 12
64.6532783818
 22
38.2112442454
 13
64.6532783818
 23
38.2112442454
  0
SOLID
  8
0
 62
7
  6
CONTINUOUS
 10
67.4864857731
 20
38.6287721948
 11
67.4128646475
 21
38.2112442454
 12
64.6532783818
 22
38.2112442454
 13
64.6532783818
 23
38.2112442454
  0
SOLID
  8
0
 62
7
  6
CONTINUOUS
 10
64.1340160181
 20
37.5849563076
 11
64.1422423286
 21
38.2112442454
 12
64.6532783818
 22
38.2112442454
 13
64.6532783818
 23
38.2112442454
  0
SOLID
  8
0
 62
7
  6
CONTINUOUS
 10
64.6329157999
 20
39.2550606223
 11
65.9984144738
 21
39.4638234929
 12
65.5711831635
 22
39.3594419826
 13
65.5711831635
 23
39.3594419826
  0
SOLID
  8
0
 62
7
  6
CONTINUOUS
 10
65.5711831635
 20
39.3594419826
 11
65.3483625315
 21
39.2550606223
 12
64.6329157999
 22
39.2550606223
 13
64.6329157999
 23
39.2550606223
  0
SOLID
  8
0
 62
7
  6
CONTINUOUS
 10
64.3548793432
 20
38.8375344311
 11
64.6329157999
 21
39.2550606223
 12
65.3483625315
 22
39.2550606223
 13
65.3483625315
 23
39.2550606223
  0
SOLID
  8
0
 62
7
  6
CONTINUOUS
 10
64.9865260105
 20
38.9419161854
 11
64.8475101215
 21
38.7331531832
 12
65.3483625315
 22
39.2550604723
 13
64.3548793432
 23
38.8375344311
  0
SOLID
  8
0
 62
7
  6
CONTINUOUS
 10
64.6634573463
 20
37.6893380254
 11
64.1340160181
 21
37.5849563076
 12
64.6164678319
 22
38.0024825289
 13
64.6164678319
 23
38.0024825289
  0
SOLID
  8
0
 62
7
  6
CONTINUOUS
 10
64.1340160181
 20
37.5849563076
 11
64.6532783818
 21
38.2112453694
 12
64.6164678319
 22
38.0024825289
 13
64.6164678319
 23
38.0024825289
  0
SOLID
  8
0
 62
7
  6
CONTINUOUS
 10
64.6634573463
 20
37.6893380254
 11
64.7288521356
 21
37.4805750231
 12
64.1340160181
 22
37.5849563076
 13
64.1340160181
 23
37.5849563076
  0
SOLID
  8
0
 62
7
  6
CONTINUOUS
 10
64.2648102625
 20
37.1674299989
 11
64.1340160181
 21
37.5849563076
 12
64.7288521356
 22
37.4805750231
 13
64.7288521356
 23
37.4805750231
  0
SOLID
  8
0
 62
7
  6
CONTINUOUS
 10
64.7288521356
 20
37.4805750231
 11
64.980256994
 21
37.1674299989
 12
64.2648102625
 22
37.1674299989
 13
64.2648102625
 23
37.1674299989
  0
SOLID
  8
0
 62
7
  6
CONTINUOUS
 10
64.4324150632
 20
36.9586672458
 11
64.2648102625
 21
37.1674299989
 12
64.980256994
 22
37.1674299989
 13
64.980256994
 23
37.1674299989
  0
SOLID
  8
0
 62
7
  6
CONTINUOUS
 10
66.6339757678
 20
37.2718119477
 11
66.7913969447
 21
37.5849566852
 12
67.3024329979
 22
37.5849566852
 13
67.3024329979
 23
37.5849566852
  0
SOLID
  8
0
 62
7
  6
CONTINUOUS
 10
67.3024329979
 20
37.5849566852
 11
67.1266018674
 21
37.1674302664
 12
66.6339757678
 22
37.2718119477
 13
66.6339757678
 23
37.2718119477
  0
SOLID
  8
0
 62
7
  6
CONTINUOUS
 10
66.2905445217
 20
37.0630487561
 11
66.6339757678
 21
37.2718119477
 12
67.1266018674
 22
37.1674302664
 13
67.1266018674
 23
37.1674302664
  0
SOLID
  8
0
 62
7
  6
CONTINUOUS
 10
66.2905445217
 20
37.0630487561
 11
67.1266018674
 21
37.1674302664
 12
65.5566878301
 22
36.9586677206
 13
65.5566878301
 23
36.9586677206
  0
SOLID
  8
0
 62
7
  6
CONTINUOUS
 10
67.1266018674
 20
37.1674302664
 11
66.76476534
 21
36.8542859065
 12
65.5566878301
 22
36.9586677206
 13
65.5566878301
 23
36.9586677206
  0
SOLID
  8
0
 62
7
  6
CONTINUOUS
 10
66.76476534
 20
36.8542859065
 11
64.7022252063
 21
36.7499043871
 12
65.5566878301
 22
36.9586677206
 13
65.5566878301
 23
36.9586677206
  0
SOLID
  8
0
 62
7
  6
CONTINUOUS
 10
64.7022252063
 20
36.7499043871
 11
64.4324150632
 21
36.9586677206
 12
65.5566878301
 22
36.9586677206
 13
65.5566878301
 23
36.9586677206
  0
SOLID
  8
0
 62
7
  6
CONTINUOUS
 10
64.7022252063
 20
36.7499043871
 11
66.76476534
 21
36.8542859065
 12
64.9904406259
 22
36.6455221944
 13
64.9904406259
 23
36.6455221944
  0
SOLID
  8
0
 62
7
  6
CONTINUOUS
 10
66.76476534
 20
36.8542859065
 11
66.3191287498
 21
36.6455221944
 12
64.9904406259
 22
36.6455221944
 13
64.9904406259
 23
36.6455221944
  0
SOLID
  8
0
 62
7
  6
CONTINUOUS
 10
65.5852767418
 20
36.5411413665
 11
64.9904406259
 21
36.6455221944
 12
66.3191287498
 22
36.6455221944
 13
66.3191287498
 23
36.6455221944
  0
SOLID
  8
0
 62
7
  6
CONTINUOUS
 10
65.1662670762
 20
37.0630487561
 11
65.5566878301
 21
36.9586672458
 12
64.980256994
 22
37.1674302664
 13
64.4324150632
 23
36.9586672458
  0
SOLID
  8
0
 62
7
  6
CONTINUOUS
 10
68.4470683466
 20
36.5411413665
 11
67.9360322934
 21
36.5411413665
 12
69.312116372
 22
41.4470725056
 13
68.8010803188
 23
41.4470725056
  0
SOLID
  8
0
 62
7
  6
CONTINUOUS
 10
70.6713460164
 20
39.8813505262
 11
70.8185882675
 21
40.7164026524
 12
71.3296243207
 22
40.7164026524
 13
71.3296243207
 23
40.7164026524
  0
SOLID
  8
0
 62
7
  6
CONTINUOUS
 10
71.3296243207
 20
40.7164026524
 11
71.1823820696
 21
39.8813505262
 12
70.6713460164
 22
39.8813505262
 13
70.6713460164
 23
39.8813505262
  0
SOLID
  8
0
 62
7
  6
CONTINUOUS
 10
72.3066595152
 20
39.8813505262
 11
69.7800728459
 21
39.4638244631
 12
71.1823820696
 22
39.8813505262
 13
71.1823820696
 23
39.8813505262
  0
SOLID
  8
0
 62
7
  6
CONTINUOUS
 10
71.1823820696
 20
39.8813505262
 11
69.7800728459
 21
39.4638244631
 12
70.6713460164
 22
39.8813505262
 13
70.6713460164
 23
39.8813505262
  0
SOLID
  8
0
 62
7
  6
CONTINUOUS
 10
69.7800728459
 20
39.4638244631
 11
69.8536939457
 21
39.8813505262
 12
70.6713460164
 22
39.8813505262
 13
70.6713460164
 23
39.8813505262
  0
SOLID
  8
0
 62
7
  6
CONTINUOUS
 10
69.7800728459
 20
39.4638244631
 11
72.3066595152
 21
39.8813505262
 12
70.5977249166
 22
39.4638244631
 13
70.5977249166
 23
39.4638244631
  0
SOLID
  8
0
 62
7
  6
CONTINUOUS
 10
70.5977249166
 20
39.4638244631
 11
72.3066595152
 21
39.8813505262
 12
71.1087609699
 22
39.4638244631
 13
71.1087609699
 23
39.4638244631
  0
SOLID
  8
0
 62
7
  6
CONTINUOUS
 10
72.3066595152
 20
39.8813505262
 11
72.2330384155
 21
39.4638244631
 12
71.1087609699
 22
39.4638244631
 13
71.1087609699
 23
39.4638244631
  0
SOLID
  8
0
 62
7
  6
CONTINUOUS
 10
70.7774659952
 20
37.5849565242
 11
70.2296193792
 21
37.3761934488
 12
71.1087609699
 22
39.4638244631
 13
71.1087609699
 23
39.4638244631
  0
SOLID
  8
0
 62
7
  6
CONTINUOUS
 10
70.2296193792
 20
37.3761934488
 11
70.5977249166
 21
39.4638244631
 12
71.1087609699
 22
39.4638244631
 13
71.1087609699
 23
39.4638244631
  0
SOLID
  8
0
 62
7
  6
CONTINUOUS
 10
70.7774659952
 20
37.5849565242
 11
70.8244554967
 21
37.2718119477
 12
70.2296193792
 22
37.3761934488
 13
70.2296193792
 23
37.3761934488
  0
SOLID
  8
0
 62
7
  6
CONTINUOUS
 10
71.0942656429
 20
37.0630489454
 11
70.36041363
 21
36.9586680845
 12
70.8244554967
 22
37.2718119477
 13
70.8244554967
 23
37.2718119477
  0
SOLID
  8
0
 62
7
  6
CONTINUOUS
 10
70.36041363
 20
36.9586680845
 11
70.2296193792
 21
37.3761934488
 12
70.8244554967
 22
37.2718119477
 13
70.8244554967
 23
37.2718119477
  0
SOLID
  8
0
 62
7
  6
CONTINUOUS
 10
71.0942656429
 20
37.0630489454
 11
71.5868964147
 21
36.9586680845
 12
70.36041363
 22
36.9586680845
 13
70.36041363
 23
36.9586680845
  0
SOLID
  8
0
 62
7
  6
CONTINUOUS
 10
70.6302237731
 20
36.7499043871
 11
70.36041363
 21
36.9586680845
 12
71.5868964147
 22
36.9586680845
 13
71.5868964147
 23
36.9586680845
  0
SOLID
  8
0
 62
7
  6
CONTINUOUS
 10
70.6302237731
 20
36.7499043871
 11
71.5868964147
 21
36.9586680845
 12
70.9184391927
 22
36.6455228768
 13
70.9184391927
 23
36.6455228768
  0
SOLID
  8
0
 62
7
  6
CONTINUOUS
 10
71.5868964147
 20
36.9586680845
 11
71.5132753085
 21
36.5411413665
 12
70.9184391927
 22
36.6455228768
 13
70.9184391927
 23
36.6455228768
  0
SOLID
  8
0
 62
7
  6
CONTINUOUS
 10
74.8618304239
 20
39.8813496958
 11
75.4566665414
 21
39.7769688889
 12
74.2301837566
 22
39.7769688889
 13
74.2301837566
 23
39.7769688889
  0
SOLID
  8
0
 62
7
  6
CONTINUOUS
 10
73.9051577855
 20
39.6725866936
 11
74.2301837566
 21
39.7769688889
 12
75.4566665414
 22
39.7769688889
 13
75.4566665414
 23
39.7769688889
  0
SOLID
  8
0
 62
7
  6
CONTINUOUS
 10
73.9051577855
 20
39.6725866936
 11
75.4566665414
 21
39.7769688889
 12
73.5617265394
 22
39.4638235009
 13
73.5617265394
 23
39.4638235009
  0
SOLID
  8
0
 62
7
  6
CONTINUOUS
 10
73.5617265394
 20
39.4638235009
 11
75.4566665414
 21
39.7769688889
 12
74.686003985
 22
39.4638235009
 13
74.686003985
 23
39.4638235009
  0
SOLID
  8
0
 62
7
  6
CONTINUOUS
 10
75.4566665414
 20
39.7769688889
 11
75.9124867698
 21
39.4638235009
 12
74.686003985
 22
39.4638235009
 13
74.686003985
 23
39.4638235009
  0
SOLID
  8
0
 62
7
  6
CONTINUOUS
 10
75.2808401024
 20
39.3594419826
 11
74.686003985
 21
39.4638235009
 12
75.9124867698
 22
39.4638235009
 13
75.9124867698
 23
39.4638235009
  0
SOLID
  8
0
 62
7
  6
CONTINUOUS
 10
73.3205006325
 20
39.2550604723
 11
73.5617265394
 21
39.4638235009
 12
74.686003985
 22
39.4638235009
 13
74.686003985
 23
39.4638235009
  0
SOLID
  8
0
 62
7
  6
CONTINUOUS
 10
75.2808401024
 20
39.3594419826
 11
75.9124867698
 21
39.4638235009
 12
75.5506502488
 22
39.1506791878
 13
75.5506502488
 23
39.1506791878
  0
SOLID
  8
0
 62
7
  6
CONTINUOUS
 10
75.9124867698
 20
39.4638235009
 11
76.1454863662
 21
39.0462976866
 12
75.5506502488
 22
39.1506791878
 13
75.5506502488
 23
39.1506791878
  0
SOLID
  8
0
 62
7
  6
CONTINUOUS
 10
75.6998451023
 20
38.8375350213
 11
75.5506502488
 21
39.1506791878
 12
76.1454863662
 22
39.0462976866
 13
76.1454863662
 23
39.0462976866
  0
SOLID
  8
0
 62
7
  6
CONTINUOUS
 10
75.6998451023
 20
38.8375350213
 11
76.1454863662
 21
39.0462976866
 12
75.6630345524
 22
38.6287721948
 13
75.6630345524
 23
38.6287721948
  0
SOLID
  8
0
 62
7
  6
CONTINUOUS
 10
76.1454863662
 20
39.0462976866
 11
76.1740706056
 21
38.6287721948
 12
75.6630345524
 22
38.6287721948
 13
75.6630345524
 23
38.6287721948
  0
SOLID
  8
0
 62
7
  6
CONTINUOUS
 10
76.1740706056
 20
38.6287721948
 11
72.8298271612
 21
38.2112442454
 12
75.6630345524
 22
38.6287721948
 13
75.6630345524
 23
38.6287721948
  0
SOLID
  8
0
 62
7
  6
CONTINUOUS
 10
75.6630345524
 20
38.6287721948
 11
72.8298271612
 21
38.2112442454
 12
73.516689679
 22
38.6287721948
 13
73.516689679
 23
38.6287721948
  0
SOLID
  8
0
 62
7
  6
CONTINUOUS
 10
73.516689679
 20
38.6287721948
 11
72.8298271612
 21
38.2112442454
 12
73.535094954
 22
38.7331531832
 13
73.535094954
 23
38.7331531832
  0
SOLID
  8
0
 62
7
  6
CONTINUOUS
 10
72.8298271612
 20
38.2112442454
 11
73.0424688544
 21
38.8375350213
 12
73.535094954
 22
38.7331531832
 13
73.535094954
 23
38.7331531832
  0
SOLID
  8
0
 62
7
  6
CONTINUOUS
 10
72.8298271612
 20
38.2112442454
 11
76.1740706056
 21
38.6287721948
 12
73.3408632144
 22
38.2112442454
 13
73.3408632144
 23
38.2112442454
  0
SOLID
  8
0
 62
7
  6
CONTINUOUS
 10
76.1740706056
 20
38.6287721948
 11
76.1004494801
 21
38.2112442454
 12
73.3408632144
 22
38.2112442454
 13
73.3408632144
 23
38.2112442454
  0
SOLID
  8
0
 62
7
  6
CONTINUOUS
 10
72.8216055293
 20
37.5849563076
 11
72.8298271612
 21
38.2112442454
 12
73.3408632144
 22
38.2112442454
 13
73.3408632144
 23
38.2112442454
  0
SOLID
  8
0
 62
7
  6
CONTINUOUS
 10
73.3205006325
 20
39.2550606223
 11
74.686003985
 21
39.4638234929
 12
74.258767996
 22
39.3594419826
 13
74.258767996
 23
39.3594419826
  0
SOLID
  8
0
 62
7
  6
CONTINUOUS
 10
74.258767996
 20
39.3594419826
 11
74.0359520428
 21
39.2550606223
 12
73.3205006325
 22
39.2550606223
 13
73.3205006325
 23
39.2550606223
  0
SOLID
  8
0
 62
7
  6
CONTINUOUS
 10
73.0424688544
 20
38.8375344311
 11
73.3205006325
 21
39.2550606223
 12
74.0359520428
 22
39.2550606223
 13
74.0359520428
 23
39.2550606223
  0
SOLID
  8
0
 62
7
  6
CONTINUOUS
 10
73.6741155217
 20
38.9419161854
 11
73.535094954
 21
38.7331531832
 12
74.0359520428
 22
39.2550604723
 13
73.0424688544
 23
38.8375344311
  0
SOLID
  8
0
 62
7
  6
CONTINUOUS
 10
73.3510421788
 20
37.6893380254
 11
72.8216055293
 21
37.5849563076
 12
73.3040526644
 22
38.0024825289
 13
73.3040526644
 23
38.0024825289
  0
SOLID
  8
0
 62
7
  6
CONTINUOUS
 10
72.8216055293
 20
37.5849563076
 11
73.3408632144
 21
38.2112453694
 12
73.3040526644
 22
38.0024825289
 13
73.3040526644
 23
38.0024825289
  0
SOLID
  8
0
 62
7
  6
CONTINUOUS
 10
73.3510421788
 20
37.6893380254
 11
73.4164416467
 21
37.4805750231
 12
72.8216055293
 22
37.5849563076
 13
72.8216055293
 23
37.5849563076
  0
SOLID
  8
0
 62
7
  6
CONTINUOUS
 10
72.952395095
 20
37.1674299989
 11
72.8216055293
 21
37.5849563076
 12
73.4164416467
 22
37.4805750231
 13
73.4164416467
 23
37.4805750231
  0
SOLID
  8
0
 62
7
  6
CONTINUOUS
 10
73.4164416467
 20
37.4805750231
 11
73.6678465052
 21
37.1674299989
 12
72.952395095
 22
37.1674299989
 13
72.952395095
 23
37.1674299989
  0
SOLID
  8
0
 62
7
  6
CONTINUOUS
 10
73.1199998957
 20
36.9586672458
 11
72.952395095
 21
37.1674299989
 12
73.6678465052
 22
37.1674299989
 13
73.6678465052
 23
37.1674299989
  0
SOLID
  8
0
 62
7
  6
CONTINUOUS
 10
75.3215606003
 20
37.2718119477
 11
75.4789817772
 21
37.5849566852
 12
75.9900178304
 22
37.5849566852
 13
75.9900178304
 23
37.5849566852
  0
SOLID
  8
0
 62
7
  6
CONTINUOUS
 10
75.9900178304
 20
37.5849566852
 11
75.8141913786
 21
37.1674302664
 12
75.3215606003
 22
37.2718119477
 13
75.3215606003
 23
37.2718119477
  0
SOLID
  8
0
 62
7
  6
CONTINUOUS
 10
74.9781293543
 20
37.0630487561
 11
75.3215606003
 21
37.2718119477
 12
75.8141913786
 22
37.1674302664
 13
75.8141913786
 23
37.1674302664
  0
SOLID
  8
0
 62
7
  6
CONTINUOUS
 10
74.9781293543
 20
37.0630487561
 11
75.8141913786
 21
37.1674302664
 12
74.2442773413
 22
36.9586677206
 13
74.2442773413
 23
36.9586677206
  0
SOLID
  8
0
 62
7
  6
CONTINUOUS
 10
75.8141913786
 20
37.1674302664
 11
75.4523548511
 21
36.8542859065
 12
74.2442773413
 22
36.9586677206
 13
74.2442773413
 23
36.9586677206
  0
SOLID
  8
0
 62
7
  6
CONTINUOUS
 10
75.4523548511
 20
36.8542859065
 11
73.3898100388
 21
36.7499043871
 12
74.2442773413
 22
36.9586677206
 13
74.2442773413
 23
36.9586677206
  0
SOLID
  8
0
 62
7
  6
CONTINUOUS
 10
73.3898100388
 20
36.7499043871
 11
73.1199998957
 21
36.9586677206
 12
74.2442773413
 22
36.9586677206
 13
74.2442773413
 23
36.9586677206
  0
SOLID
  8
0
 62
7
  6
CONTINUOUS
 10
73.3898100388
 20
36.7499043871
 11
75.4523548511
 21
36.8542859065
 12
73.6780254584
 22
36.6455221944
 13
73.6780254584
 23
36.6455221944
  0
SOLID
  8
0
 62
7
  6
CONTINUOUS
 10
75.4523548511
 20
36.8542859065
 11
75.0067135824
 21
36.6455221944
 12
73.6780254584
 22
36.6455221944
 13
73.6780254584
 23
36.6455221944
  0
SOLID
  8
0
 62
7
  6
CONTINUOUS
 10
74.2728615743
 20
36.5411413665
 11
73.6780254584
 21
36.6455221944
 12
75.0067135824
 22
36.6455221944
 13
75.0067135824
 23
36.6455221944
  0
SOLID
  8
0
 62
7
  6
CONTINUOUS
 10
73.8538519086
 20
37.0630487561
 11
74.2442773413
 21
36.9586672458
 12
73.6678465052
 22
37.1674302664
 13
73.1199998957
 23
36.9586672458
  0
SOLID
  8
0
 62
7
  6
CONTINUOUS
 10
78.9501048136
 20
39.8813496958
 11
79.6471509489
 21
39.7769677562
 12
78.3184581462
 22
39.7769677562
 13
78.3184581462
 23
39.7769677562
  0
SOLID
  8
0
 62
7
  6
CONTINUOUS
 10
77.9934321752
 20
39.6725866936
 11
78.3184581462
 21
39.7769677562
 12
79.6471509489
 22
39.7769677562
 13
79.6471509489
 23
39.7769677562
  0
SOLID
  8
0
 62
7
  6
CONTINUOUS
 10
79.6471509489
 20
39.7769677562
 11
80.0191664343
 21
39.5682051924
 12
77.9934321752
 22
39.6725866936
 13
77.9934321752
 23
39.6725866936
  0
SOLID
  8
0
 62
7
  6
CONTINUOUS
 10
77.650000929
 20
39.4638232253
 11
77.9934321752
 21
39.6725866936
 12
80.0191664343
 22
39.5682051924
 13
80.0191664343
 23
39.5682051924
  0
SOLID
  8
0
 62
7
  6
CONTINUOUS
 10
78.3470470643
 20
39.359441715
 11
77.4087797009
 21
39.2550602047
 12
78.7742783747
 22
39.4638232253
 13
78.7742783747
 23
39.4638232253
  0
SOLID
  8
0
 62
7
  6
CONTINUOUS
 10
77.4087797009
 20
39.2550602047
 11
77.650000929
 21
39.4638232253
 12
78.7742783747
 22
39.4638232253
 13
78.7742783747
 23
39.4638232253
  0
SOLID
  8
0
 62
7
  6
CONTINUOUS
 10
78.3470470643
 20
39.359441715
 11
78.1242264324
 21
39.2550602047
 12
77.4087797009
 22
39.2550602047
 13
77.4087797009
 23
39.2550602047
  0
SOLID
  8
0
 62
7
  6
CONTINUOUS
 10
77.650000929
 20
39.4638232253
 11
80.0191664343
 21
39.5682051924
 12
78.7742783747
 22
39.4638232253
 13
78.7742783747
 23
39.4638232253
  0
SOLID
  8
0
 62
7
  6
CONTINUOUS
 10
78.7742783747
 20
39.4638232253
 11
80.0191664343
 21
39.5682051924
 12
79.4713198313
 22
39.359441715
 13
79.4713198313
 23
39.359441715
  0
SOLID
  8
0
 62
7
  6
CONTINUOUS
 10
80.0191664343
 20
39.5682051924
 11
80.2705713057
 21
39.2550602047
 12
79.4713198313
 22
39.359441715
 13
79.4713198313
 23
39.359441715
  0
SOLID
  8
0
 62
7
  6
CONTINUOUS
 10
79.7411299776
 20
39.1506791878
 11
79.4713198313
 21
39.359441715
 12
80.2705713057
 22
39.2550602047
 13
80.2705713057
 23
39.2550602047
  0
SOLID
  8
0
 62
7
  6
CONTINUOUS
 10
77.7623899114
 20
38.9419161854
 11
77.1307432441
 21
38.8375341636
 12
78.1242264324
 22
39.2550602047
 13
78.1242264324
 23
39.2550602047
  0
SOLID
  8
0
 62
7
  6
CONTINUOUS
 10
77.1307432441
 20
38.8375341636
 11
77.4087797009
 21
39.2550602047
 12
78.1242264324
 22
39.2550602047
 13
78.1242264324
 23
39.2550602047
  0
SOLID
  8
0
 62
7
  6
CONTINUOUS
 10
79.7411299776
 20
39.1506791878
 11
80.2705713057
 21
39.2550602047
 12
79.7881241706
 22
38.8375341636
 13
79.7881241706
 23
38.8375341636
  0
SOLID
  8
0
 62
7
  6
CONTINUOUS
 10
80.2705713057
 20
39.2550602047
 11
80.2991555452
 21
38.8375341636
 12
79.7881241706
 22
38.8375341636
 13
79.7881241706
 23
38.8375341636
  0
SOLID
  8
0
 62
7
  6
CONTINUOUS
 10
77.7623899114
 20
38.9419161854
 11
77.6233740223
 21
38.7331531832
 12
77.1307432441
 22
38.8375341636
 13
77.1307432441
 23
38.8375341636
  0
SOLID
  8
0
 62
7
  6
CONTINUOUS
 10
77.4475428789
 20
38.3156270323
 11
76.9181062295
 21
38.2112455312
 12
77.6233740223
 22
38.7331531832
 13
77.6233740223
 23
38.7331531832
  0
SOLID
  8
0
 62
7
  6
CONTINUOUS
 10
76.9181062295
 20
38.2112455312
 11
77.1307432441
 21
38.8375341636
 12
77.6233740223
 22
38.7331531832
 13
77.6233740223
 23
38.7331531832
  0
SOLID
  8
0
 62
7
  6
CONTINUOUS
 10
77.4475428789
 20
38.3156270323
 11
77.3923270541
 21
38.0024825289
 12
76.9181062295
 22
38.2112455312
 13
76.9181062295
 23
38.2112455312
  0
SOLID
  8
0
 62
7
  6
CONTINUOUS
 10
76.909879919
 20
37.5849560401
 11
76.9181062295
 21
38.2112455312
 12
77.3923270541
 22
38.0024825289
 13
77.3923270541
 23
38.0024825289
  0
SOLID
  8
0
 62
7
  6
CONTINUOUS
 10
77.3923270541
 20
38.0024825289
 11
77.5047160364
 21
37.4805750231
 12
76.909879919
 22
37.5849560401
 13
76.909879919
 23
37.5849560401
  0
SOLID
  8
0
 62
7
  6
CONTINUOUS
 10
79.40983499
 20
37.2718119477
 11
79.5672608455
 21
37.5849560401
 12
80.0782922201
 22
37.5849560401
 13
80.0782922201
 23
37.5849560401
  0
SOLID
  8
0
 62
7
  6
CONTINUOUS
 10
77.0406741633
 20
37.1674299989
 11
76.909879919
 21
37.5849560401
 12
77.5047160364
 22
37.4805750231
 13
77.5047160364
 23
37.4805750231
  0
SOLID
  8
0
 62
7
  6
CONTINUOUS
 10
77.5047160364
 20
37.4805750231
 11
77.7561208949
 21
37.1674299989
 12
77.0406741633
 22
37.1674299989
 13
77.0406741633
 23
37.1674299989
  0
SOLID
  8
0
 62
7
  6
CONTINUOUS
 10
80.0782922201
 20
37.5849560401
 11
79.9024657682
 21
37.1674299989
 12
79.40983499
 22
37.2718119477
 13
79.40983499
 23
37.2718119477
  0
SOLID
  8
0
 62
7
  6
CONTINUOUS
 10
79.0664037439
 20
37.0630489454
 11
79.40983499
 21
37.2718119477
 12
79.9024657682
 22
37.1674299989
 13
79.9024657682
 23
37.1674299989
  0
SOLID
  8
0
 62
7
  6
CONTINUOUS
 10
77.2082742854
 20
36.9586669783
 11
77.0406741633
 21
37.1674299989
 12
77.7561208949
 22
37.1674299989
 13
77.7561208949
 23
37.1674299989
  0
SOLID
  8
0
 62
7
  6
CONTINUOUS
 10
77.7561208949
 20
37.1674299989
 11
78.3325517309
 21
36.9586669783
 12
77.2082742854
 22
36.9586669783
 13
77.2082742854
 23
36.9586669783
  0
SOLID
  8
0
 62
7
  6
CONTINUOUS
 10
79.0664037439
 20
37.0630489454
 11
79.9024657682
 21
37.1674299989
 12
78.3325517309
 22
36.9586669783
 13
78.3325517309
 23
36.9586669783
  0
SOLID
  8
0
 62
7
  6
CONTINUOUS
 10
79.9024657682
 20
37.1674299989
 11
79.5406292408
 21
36.8542859065
 12
78.3325517309
 22
36.9586669783
 13
78.3325517309
 23
36.9586669783
  0
SOLID
  8
0
 62
7
  6
CONTINUOUS
 10
79.5406292408
 20
36.8542859065
 11
77.4780844285
 21
36.7499043871
 12
78.3325517309
 22
36.9586669783
 13
78.3325517309
 23
36.9586669783
  0
SOLID
  8
0
 62
7
  6
CONTINUOUS
 10
77.4780844285
 20
36.7499043871
 11
77.2082742854
 21
36.9586669783
 12
78.3325517309
 22
36.9586669783
 13
78.3325517309
 23
36.9586669783
  0
SOLID
  8
0
 62
7
  6
CONTINUOUS
 10
77.4780844285
 20
36.7499043871
 11
79.5406292408
 21
36.8542859065
 12
77.7662998481
 22
36.6455224474
 13
77.7662998481
 23
36.6455224474
  0
SOLID
  8
0
 62
7
  6
CONTINUOUS
 10
79.5406292408
 20
36.8542859065
 11
79.0949926507
 21
36.6455224474
 12
77.7662998481
 22
36.6455224474
 13
77.7662998481
 23
36.6455224474
  0
SOLID
  8
0
 62
7
  6
CONTINUOUS
 10
78.3611359639
 20
36.5411413665
 11
77.7662998481
 21
36.6455224474
 12
79.0949926507
 22
36.6455224474
 13
79.0949926507
 23
36.6455224474
  0
SOLID
  8
0
 62
7
  6
CONTINUOUS
 10
82.3045271967
 20
39.7769658841
 11
82.7317631857
 21
39.8813493809
 12
83.1405892211
 22
39.8813493809
 13
83.1405892211
 23
39.8813493809
  0
SOLID
  8
0
 62
7
  6
CONTINUOUS
 10
83.1405892211
 20
39.8813493809
 11
83.4288046424
 21
39.7769658841
 12
82.3045271967
 22
39.7769658841
 13
82.3045271967
 23
39.7769658841
  0
SOLID
  8
0
 62
7
  6
CONTINUOUS
 10
81.9610959507
 20
39.5682037963
 11
82.3045271967
 21
39.7769658841
 12
83.4288046424
 22
39.7769658841
 13
83.4288046424
 23
39.7769658841
  0
SOLID
  8
0
 62
7
  6
CONTINUOUS
 10
83.4288046424
 20
39.7769658841
 11
83.6986147886
 21
39.5682037963
 12
81.9610959507
 22
39.5682037963
 13
81.9610959507
 23
39.5682037963
  0
SOLID
  8
0
 62
7
  6
CONTINUOUS
 10
83.6986147886
 20
39.5682037963
 11
82.658142086
 21
39.4638236912
 12
81.9610959507
 22
39.5682037963
 13
81.9610959507
 23
39.5682037963
  0
SOLID
  8
0
 62
7
  6
CONTINUOUS
 10
81.7198747224
 20
39.3594417086
 11
81.9610959507
 21
39.5682037963
 12
82.658142086
 22
39.4638236912
 13
82.658142086
 23
39.4638236912
  0
SOLID
  8
0
 62
7
  6
CONTINUOUS
 10
82.658142086
 20
39.4638236912
 11
82.230906097
 21
39.3594417086
 12
81.7198747224
 22
39.3594417086
 13
81.7198747224
 23
39.3594417086
  0
SOLID
  8
0
 62
7
  6
CONTINUOUS
 10
82.658142086
 20
39.4638236912
 11
83.6986147886
 21
39.5682037963
 12
83.0485628464
 22
39.3594417086
 13
83.0485628464
 23
39.3594417086
  0
SOLID
  8
0
 62
7
  6
CONTINUOUS
 10
83.6986147886
 20
39.5682037963
 11
83.8662195958
 21
39.3594417086
 12
83.0485628464
 22
39.3594417086
 13
83.0485628464
 23
39.3594417086
  0
SOLID
  8
0
 62
7
  6
CONTINUOUS
 10
83.2345729285
 20
39.255060689
 11
83.0485628464
 21
39.3594417086
 12
83.8662195958
 22
39.3594417086
 13
83.8662195958
 23
39.3594417086
  0
SOLID
  8
0
 62
7
  6
CONTINUOUS
 10
83.8662195958
 20
39.3594417086
 11
83.9316143851
 21
39.1506796208
 12
83.2345729285
 22
39.255060689
 13
83.2345729285
 23
39.255060689
  0
SOLID
  8
0
 62
7
  6
CONTINUOUS
 10
83.402173057
 20
39.0462976866
 11
83.2345729285
 21
39.255060689
 12
83.9316143851
 22
39.1506796208
 13
83.9316143851
 23
39.1506796208
  0
SOLID
  8
0
 62
7
  6
CONTINUOUS
 10
83.402173057
 20
39.0462976866
 11
83.9316143851
 21
39.1506796208
 12
83.4307619751
 22
38.6287719484
 13
83.4307619751
 23
38.6287719484
  0
SOLID
  8
0
 62
7
  6
CONTINUOUS
 10
83.9316143851
 20
39.1506796208
 11
83.9417933496
 21
38.6287719484
 12
83.4307619751
 22
38.6287719484
 13
83.4307619751
 23
38.6287719484
  0
SOLID
  8
0
 62
7
  6
CONTINUOUS
 10
82.230906097
 20
39.3594417086
 11
81.8874748509
 21
39.1506796208
 12
81.7198747224
 22
39.3594417086
 13
81.7198747224
 23
39.3594417086
  0
SOLID
  8
0
 62
7
  6
CONTINUOUS
 10
81.8874748509
 20
39.1506796208
 11
81.6462536227
 21
38.9419161854
 12
81.7198747224
 22
39.3594417086
 13
81.7198747224
 23
39.3594417086
  0
SOLID
  8
0
 62
7
  6
CONTINUOUS
 10
81.6462536227
 20
38.9419161854
 11
80.7118961943
 21
36.541141259
 12
81.7198747224
 22
39.3594417086
 13
81.7198747224
 23
39.3594417086
  0
SOLID
  8
0
 62
7
  6
CONTINUOUS
 10
81.7198747224
 20
39.3594417086
 11
80.7118961943
 21
36.541141259
 12
82.0879802728
 22
41.447072398
 13
82.0879802728
 23
41.447072398
  0
SOLID
  8
0
 62
7
  6
CONTINUOUS
 10
80.7118961943
 20
36.541141259
 11
81.5769442196
 21
41.447072398
 12
82.0879802728
 22
41.447072398
 13
82.0879802728
 23
41.447072398
  0
SOLID
  8
0
 62
7
  6
CONTINUOUS
 10
81.6462536227
 20
38.9419161854
 11
81.2229322475
 21
36.541141259
 12
80.7118961943
 22
36.541141259
 13
80.7118961943
 23
36.541141259
  0
SOLID
  8
0
 62
7
  6
CONTINUOUS
 10
83.0626564247
 20
36.541141259
 11
83.4307619751
 21
38.6287719484
 12
83.9417933496
 22
38.6287719484
 13
83.9417933496
 23
38.6287719484
  0
SOLID
  8
0
 62
7
  6
CONTINUOUS
 10
83.9417933496
 20
38.6287719484
 11
83.5736877992
 21
36.541141259
 12
83.0626564247
 22
36.541141259
 13
83.0626564247
 23
36.541141259
  0
SOLID
  8
0
 62
7
  6
CONTINUOUS
 10
53.0138258585
 20
36.5411413665
 11
53.8788738839
 21
41.4470725056
 12
53.5248619117
 22
36.5411413665
 13
54.3899099371
 23
41.4470725056
  0
SOLID
  8
0
 62
7
  6
CONTINUOUS
 10
50.0071487575
 20
39.7769685912
 11
50.7410031033
 21
39.8813484314
 12
51.3542444957
 22
39.8813484314
 13
51.3542444957
 23
39.8813484314
  0
SOLID
  8
0
 62
7
  6
CONTINUOUS
 10
51.3542444957
 20
39.8813484314
 11
51.9490806131
 21
39.7769685912
 12
50.0071487575
 22
39.7769685912
 13
50.0071487575
 23
39.7769685912
  0
SOLID
  8
0
 62
7
  6
CONTINUOUS
 10
49.7843304648
 20
39.6725866936
 11
50.0071487575
 21
39.7769685912
 12
51.9490806131
 22
39.7769685912
 13
51.9490806131
 23
39.7769685912
  0
SOLID
  8
0
 62
7
  6
CONTINUOUS
 10
51.9490806131
 20
39.7769685912
 11
52.2188907594
 21
39.5682051924
 12
49.7843304648
 22
39.6725866936
 13
49.7843304648
 23
39.6725866936
  0
SOLID
  8
0
 62
7
  6
CONTINUOUS
 10
49.543104558
 20
39.4638240604
 11
49.7843304648
 21
39.6725866936
 12
52.2188907594
 22
39.5682051924
 13
52.2188907594
 23
39.5682051924
  0
SOLID
  8
0
 62
7
  6
CONTINUOUS
 10
49.543104558
 20
39.4638240604
 11
52.2188907594
 21
39.5682051924
 12
50.6673820036
 22
39.4638240604
 13
50.6673820036
 23
39.4638240604
  0
SOLID
  8
0
 62
7
  6
CONTINUOUS
 10
50.6673820036
 20
39.4638240604
 11
52.2188907594
 21
39.5682051924
 12
51.2806233959
 22
39.4638240604
 13
51.2806233959
 23
39.4638240604
  0
SOLID
  8
0
 62
7
  6
CONTINUOUS
 10
51.2806233959
 20
39.4638240604
 11
52.2188907594
 21
39.5682051924
 12
51.6710441564
 22
39.359441715
 13
51.6710441564
 23
39.359441715
  0
SOLID
  8
0
 62
7
  6
CONTINUOUS
 10
52.2188907594
 20
39.5682051924
 11
52.3864932272
 21
39.359441715
 12
51.6710441564
 22
39.359441715
 13
51.6710441564
 23
39.359441715
  0
SOLID
  8
0
 62
7
  6
CONTINUOUS
 10
49.4040886689
 20
39.2550593697
 11
49.543104558
 21
39.4638240604
 12
50.6673820036
 22
39.4638240604
 13
50.6673820036
 23
39.4638240604
  0
SOLID
  8
0
 62
7
  6
CONTINUOUS
 10
51.8570542384
 20
39.2550593697
 11
51.6710441564
 21
39.359441715
 12
52.3864932272
 22
39.359441715
 13
52.3864932272
 23
39.359441715
  0
SOLID
  8
0
 62
7
  6
CONTINUOUS
 10
51.8570542384
 20
39.2550593697
 11
52.3864932272
 21
39.359441715
 12
51.9224490277
 22
39.0462971841
 13
51.9224490277
 23
39.0462971841
  0
SOLID
  8
0
 62
7
  6
CONTINUOUS
 10
52.3864932272
 20
39.359441715
 11
52.4334850809
 21
39.0462971841
 12
51.9224490277
 22
39.0462971841
 13
51.9224490277
 23
39.0462971841
  0
SOLID
  8
0
 62
7
  6
CONTINUOUS
 10
51.8672332029
 20
38.7331529208
 11
51.9224490277
 21
39.0462971841
 12
52.4334850809
 22
39.0462971841
 13
52.4334850809
 23
39.0462971841
  0
SOLID
  8
0
 62
7
  6
CONTINUOUS
 10
51.8672332029
 20
38.7331529208
 11
52.4334850809
 21
39.0462971841
 12
51.7936120773
 22
38.3156268796
 13
51.7936120773
 23
38.3156268796
  0
SOLID
  8
0
 62
7
  6
CONTINUOUS
 10
51.7936120773
 20
38.3156268796
 11
52.4334850809
 21
39.0462971841
 12
51.6831804277
 22
37.6893380254
 13
51.6831804277
 23
37.6893380254
  0
SOLID
  8
0
 62
7
  6
CONTINUOUS
 10
52.4334850809
 20
39.0462971841
 11
52.1390006432
 21
37.376193287
 12
51.6831804277
 22
37.6893380254
 13
51.6831804277
 23
37.6893380254
  0
SOLID
  8
0
 62
7
  6
CONTINUOUS
 10
49.4040886689
 20
39.2550606223
 11
50.6673820036
 21
39.4638234929
 12
50.2401483539
 22
39.3594419826
 13
50.2401483539
 23
39.3594419826
  0
SOLID
  8
0
 62
7
  6
CONTINUOUS
 10
50.2401483539
 20
39.3594419826
 11
50.0173300612
 21
39.2550606223
 12
49.4040886689
 22
39.2550606223
 13
49.4040886689
 23
39.2550606223
  0
SOLID
  8
0
 62
7
  6
CONTINUOUS
 10
49.367278119
 20
39.0462976017
 11
49.4040886689
 21
39.2550606223
 12
50.0173300612
 22
39.2550606223
 13
50.0173300612
 23
39.2550606223
  0
SOLID
  8
0
 62
7
  6
CONTINUOUS
 10
50.0173300612
 20
39.2550606223
 11
49.8783118329
 21
39.0462976017
 12
49.367278119
 22
39.0462976017
 13
49.367278119
 23
39.0462976017
  0
SOLID
  8
0
 62
7
  6
CONTINUOUS
 10
50.1113114293
 20
38.628771682
 11
50.7429580966
 21
38.7331530708
 12
51.8672332029
 22
38.7331530708
 13
51.8672332029
 23
38.7331530708
  0
SOLID
  8
0
 62
7
  6
CONTINUOUS
 10
50.1113114293
 20
38.628771682
 11
51.8672332029
 21
38.7331530708
 12
49.6656725047
 22
38.4200086797
 13
49.6656725047
 23
38.4200086797
  0
SOLID
  8
0
 62
7
  6
CONTINUOUS
 10
49.6656725047
 20
38.4200086797
 11
51.8672332029
 21
38.7331530708
 12
50.6693369711
 22
38.3156270296
 13
50.6693369711
 23
38.3156270296
  0
SOLID
  8
0
 62
7
  6
CONTINUOUS
 10
51.8672332029
 20
38.7331530708
 11
51.7936120773
 21
38.3156270296
 12
50.6693369711
 22
38.3156270296
 13
50.6693369711
 23
38.3156270296
  0
SOLID
  8
0
 62
7
  6
CONTINUOUS
 10
49.4244489114
 20
38.211245249
 11
49.6656725047
 21
38.4200086797
 12
50.6693369711
 22
38.3156268796
 13
50.6693369711
 23
38.3156268796
  0
SOLID
  8
0
 62
7
  6
CONTINUOUS
 10
50.6693369711
 20
38.3156268796
 11
50.2421033215
 21
38.211245249
 12
49.4244489114
 22
38.211245249
 13
49.4244489114
 23
38.211245249
  0
SOLID
  8
0
 62
7
  6
CONTINUOUS
 10
49.1464147939
 20
37.7937195266
 11
49.4244489114
 21
38.211245249
 12
50.2421033215
 22
38.211245249
 13
50.2421033215
 23
38.211245249
  0
SOLID
  8
0
 62
7
  6
CONTINUOUS
 10
49.7780614613
 20
37.8981010277
 11
49.1464147939
 21
37.7937195266
 12
50.0192850288
 22
38.10686403
 13
50.0192850288
 23
38.10686403
  0
SOLID
  8
0
 62
7
  6
CONTINUOUS
 10
49.1464147939
 20
37.7937195266
 11
50.2421033215
 21
38.2112453694
 12
50.0192850288
 22
38.10686403
 13
50.0192850288
 23
38.10686403
  0
SOLID
  8
0
 62
7
  6
CONTINUOUS
 10
49.7780614613
 20
37.8981010277
 11
49.620637958
 21
37.5849565242
 12
49.1464147939
 22
37.7937195266
 13
49.1464147939
 23
37.7937195266
  0
SOLID
  8
0
 62
7
  6
CONTINUOUS
 10
49.0911989691
 20
37.4805747973
 11
49.1464147939
 21
37.7937195266
 12
49.620637958
 22
37.5849565242
 13
49.620637958
 23
37.5849565242
  0
SOLID
  8
0
 62
7
  6
CONTINUOUS
 10
49.620637958
 20
37.5849565242
 11
49.5838273952
 21
37.376193287
 12
49.0911989691
 22
37.4805747973
 13
49.0911989691
 23
37.4805747973
  0
SOLID
  8
0
 62
7
  6
CONTINUOUS
 10
49.1197831956
 20
37.0630487561
 11
49.0911989691
 21
37.4805747973
 12
49.5838273952
 22
37.376193287
 13
49.5838273952
 23
37.376193287
  0
SOLID
  8
0
 62
7
  6
CONTINUOUS
 10
51.6831804277
 20
37.6893380254
 11
52.1390006432
 21
37.376193287
 12
51.5441645386
 22
37.4805747973
 13
51.5441645386
 23
37.4805747973
  0
SOLID
  8
0
 62
7
  6
CONTINUOUS
 10
51.1823280047
 20
37.1674302664
 11
51.5441645386
 21
37.4805747973
 12
52.1390006432
 22
37.376193287
 13
52.1390006432
 23
37.376193287
  0
SOLID
  8
0
 62
7
  6
CONTINUOUS
 10
51.1823280047
 20
37.1674302664
 11
52.1390006432
 21
37.376193287
 12
51.5727487652
 22
37.0630487561
 13
51.5727487652
 23
37.0630487561
  0
SOLID
  8
0
 62
7
  6
CONTINUOUS
 10
52.1390006432
 20
37.376193287
 11
52.1491796013
 21
36.8542857356
 12
51.5727487652
 22
37.0630487561
 13
51.5727487652
 23
37.0630487561
  0
SOLID
  8
0
 62
7
  6
CONTINUOUS
 10
51.6197406092
 20
36.7499042253
 11
51.5727487652
 21
37.0630487561
 12
52.1491796013
 22
36.8542857356
 13
52.1491796013
 23
36.8542857356
  0
SOLID
  8
0
 62
7
  6
CONTINUOUS
 10
51.6197406092
 20
36.7499042253
 11
52.1491796013
 21
36.8542857356
 12
51.6851377346
 22
36.5411410697
 13
51.6851377346
 23
36.5411410697
  0
SOLID
  8
0
 62
7
  6
CONTINUOUS
 10
52.1491796013
 20
36.8542857356
 11
52.1961714485
 21
36.5411410697
 12
51.6851377346
 22
36.5411410697
 13
51.6851377346
 23
36.5411410697
  0
SOLID
  8
0
 62
7
  6
CONTINUOUS
 10
49.1197831956
 20
37.0630487561
 11
49.5838273952
 21
37.376193287
 12
49.6492245238
 22
37.1674302664
 13
49.6492245238
 23
37.1674302664
  0
SOLID
  8
0
 62
7
  6
CONTINUOUS
 10
49.6492245238
 20
37.1674302664
 11
50.0212400028
 21
36.9586672458
 12
49.1197831956
 22
37.0630487561
 13
49.1197831956
 23
37.0630487561
  0
SOLID
  8
0
 62
7
  6
CONTINUOUS
 10
49.3711880574
 20
36.7499042253
 11
49.1197831956
 21
37.0630487561
 12
50.0212400028
 22
36.9586672458
 13
50.0212400028
 23
36.9586672458
  0
SOLID
  8
0
 62
7
  6
CONTINUOUS
 10
50.6344813952
 20
36.9586671871
 11
51.1823280047
 21
37.1674302664
 12
51.5727487652
 22
37.0630487561
 13
51.5727487652
 23
37.0630487561
  0
SOLID
  8
0
 62
7
  6
CONTINUOUS
 10
51.5727487652
 20
37.0630487561
 11
51.4337328697
 21
36.8542857356
 12
50.6344813952
 22
36.9586671871
 13
50.6344813952
 23
36.9586671871
  0
SOLID
  8
0
 62
7
  6
CONTINUOUS
 10
51.4337328697
 20
36.8542857356
 11
49.3711880574
 21
36.7499042253
 12
50.6344813952
 22
36.9586671871
 13
50.6344813952
 23
36.9586671871
  0
SOLID
  8
0
 62
7
  6
CONTINUOUS
 10
49.3711880574
 20
36.7499042253
 11
50.0212400028
 21
36.9586671871
 12
50.6344813952
 22
36.9586671871
 13
50.6344813952
 23
36.9586671871
  0
SOLID
  8
0
 62
7
  6
CONTINUOUS
 10
49.3711880574
 20
36.7499042253
 11
51.4337328697
 21
36.8542857356
 12
49.5571981378
 22
36.6455226562
 13
49.5571981378
 23
36.6455226562
  0
SOLID
  8
0
 62
7
  6
CONTINUOUS
 10
51.4337328697
 20
36.8542857356
 11
51.0903016188
 21
36.6455226562
 12
49.5571981378
 22
36.6455226562
 13
49.5571981378
 23
36.6455226562
  0
SOLID
  8
0
 62
7
  6
CONTINUOUS
 10
49.9476188966
 20
36.5411409371
 11
49.5571981378
 21
36.6455226562
 12
51.0903016188
 22
36.6455226562
 13
51.0903016188
 23
36.6455226562
  0
SOLID
  8
0
 62
7
  6
CONTINUOUS
 10
51.0903016188
 20
36.6455226562
 11
50.560860289
 21
36.5411409371
 12
49.9476188966
 22
36.5411409371
 13
49.9476188966
 23
36.5411409371
  0
SOLID
  8
0
 62
7
  6
CONTINUOUS
 10
45.9188720284
 20
39.7769685912
 11
46.6527263743
 21
39.8813484314
 12
47.2659677667
 22
39.8813484314
 13
47.2659677667
 23
39.8813484314
  0
SOLID
  8
0
 62
7
  6
CONTINUOUS
 10
47.2659677667
 20
39.8813484314
 11
47.8608038842
 21
39.7769685912
 12
45.9188720284
 22
39.7769685912
 13
45.9188720284
 23
39.7769685912
  0
SOLID
  8
0
 62
7
  6
CONTINUOUS
 10
45.6960537359
 20
39.6725866936
 11
45.9188720284
 21
39.7769685912
 12
47.8608038842
 22
39.7769685912
 13
47.8608038842
 23
39.7769685912
  0
SOLID
  8
0
 62
7
  6
CONTINUOUS
 10
47.8608038842
 20
39.7769685912
 11
48.1306140304
 21
39.5682051924
 12
45.6960537359
 22
39.6725866936
 13
45.6960537359
 23
39.6725866936
  0
SOLID
  8
0
 62
7
  6
CONTINUOUS
 10
45.4548301683
 20
39.4638240604
 11
45.6960537359
 21
39.6725866936
 12
48.1306140304
 22
39.5682051924
 13
48.1306140304
 23
39.5682051924
  0
SOLID
  8
0
 62
7
  6
CONTINUOUS
 10
45.4548301683
 20
39.4638240604
 11
48.1306140304
 21
39.5682051924
 12
46.5791052746
 22
39.4638240604
 13
46.5791052746
 23
39.4638240604
  0
SOLID
  8
0
 62
7
  6
CONTINUOUS
 10
46.5791052746
 20
39.4638240604
 11
48.1306140304
 21
39.5682051924
 12
47.192346667
 22
39.4638240604
 13
47.192346667
 23
39.4638240604
  0
SOLID
  8
0
 62
7
  6
CONTINUOUS
 10
47.192346667
 20
39.4638240604
 11
48.1306140304
 21
39.5682051924
 12
47.5827697667
 22
39.359441715
 13
47.5827697667
 23
39.359441715
  0
SOLID
  8
0
 62
7
  6
CONTINUOUS
 10
48.1306140304
 20
39.5682051924
 11
48.2982164983
 21
39.359441715
 12
47.5827697667
 22
39.359441715
 13
47.5827697667
 23
39.359441715
  0
SOLID
  8
0
 62
7
  6
CONTINUOUS
 10
45.3158119399
 20
39.2550593697
 11
45.4548301683
 21
39.4638240604
 12
46.5791052746
 22
39.4638240604
 13
46.5791052746
 23
39.4638240604
  0
SOLID
  8
0
 62
7
  6
CONTINUOUS
 10
47.7687775094
 20
39.2550593697
 11
47.5827697667
 21
39.359441715
 12
48.2982164983
 22
39.359441715
 13
48.2982164983
 23
39.359441715
  0
SOLID
  8
0
 62
7
  6
CONTINUOUS
 10
47.7687775094
 20
39.2550593697
 11
48.2982164983
 21
39.359441715
 12
47.834174638
 22
39.0462971841
 13
47.834174638
 23
39.0462971841
  0
SOLID
  8
0
 62
7
  6
CONTINUOUS
 10
48.2982164983
 20
39.359441715
 11
48.3452083519
 21
39.0462971841
 12
47.834174638
 22
39.0462971841
 13
47.834174638
 23
39.0462971841
  0
SOLID
  8
0
 62
7
  6
CONTINUOUS
 10
47.7789588132
 20
38.7331529208
 11
47.834174638
 21
39.0462971841
 12
48.3452083519
 22
39.0462971841
 13
48.3452083519
 23
39.0462971841
  0
SOLID
  8
0
 62
7
  6
CONTINUOUS
 10
47.7789588132
 20
38.7331529208
 11
48.3452083519
 21
39.0462971841
 12
47.7053376877
 22
38.3156268796
 13
47.7053376877
 23
38.3156268796
  0
SOLID
  8
0
 62
7
  6
CONTINUOUS
 10
47.7053376877
 20
38.3156268796
 11
48.3452083519
 21
39.0462971841
 12
47.5949060381
 22
37.6893380254
 13
47.5949060381
 23
37.6893380254
  0
SOLID
  8
0
 62
7
  6
CONTINUOUS
 10
48.3452083519
 20
39.0462971841
 11
48.0507239142
 21
37.376193287
 12
47.5949060381
 22
37.6893380254
 13
47.5949060381
 23
37.6893380254
  0
SOLID
  8
0
 62
7
  6
CONTINUOUS
 10
45.3158119399
 20
39.2550606223
 11
46.5791052746
 21
39.4638234929
 12
46.1518716249
 22
39.3594419826
 13
46.1518716249
 23
39.3594419826
  0
SOLID
  8
0
 62
7
  6
CONTINUOUS
 10
46.1518716249
 20
39.3594419826
 11
45.9290533323
 21
39.2550606223
 12
45.3158119399
 22
39.2550606223
 13
45.3158119399
 23
39.2550606223
  0
SOLID
  8
0
 62
7
  6
CONTINUOUS
 10
45.27900139
 20
39.0462976017
 11
45.3158119399
 21
39.2550606223
 12
45.9290533323
 22
39.2550606223
 13
45.9290533323
 23
39.2550606223
  0
SOLID
  8
0
 62
7
  6
CONTINUOUS
 10
45.9290533323
 20
39.2550606223
 11
45.7900351039
 21
39.0462976017
 12
45.27900139
 22
39.0462976017
 13
45.27900139
 23
39.0462976017
  0
SOLID
  8
0
 62
7
  6
CONTINUOUS
 10
46.0230347003
 20
38.628771682
 11
46.6546813676
 21
38.7331530708
 12
47.7789588132
 22
38.7331530708
 13
47.7789588132
 23
38.7331530708
  0
SOLID
  8
0
 62
7
  6
CONTINUOUS
 10
46.0230347003
 20
38.628771682
 11
47.7789588132
 21
38.7331530708
 12
45.5773981151
 22
38.4200086797
 13
45.5773981151
 23
38.4200086797
  0
SOLID
  8
0
 62
7
  6
CONTINUOUS
 10
45.5773981151
 20
38.4200086797
 11
47.7789588132
 21
38.7331530708
 12
46.5810602421
 22
38.3156270296
 13
46.5810602421
 23
38.3156270296
  0
SOLID
  8
0
 62
7
  6
CONTINUOUS
 10
47.7789588132
 20
38.7331530708
 11
47.7053376877
 21
38.3156270296
 12
46.5810602421
 22
38.3156270296
 13
46.5810602421
 23
38.3156270296
  0
SOLID
  8
0
 62
7
  6
CONTINUOUS
 10
45.3361721824
 20
38.211245249
 11
45.5773981151
 21
38.4200086797
 12
46.5810602421
 22
38.3156268796
 13
46.5810602421
 23
38.3156268796
  0
SOLID
  8
0
 62
7
  6
CONTINUOUS
 10
46.5810602421
 20
38.3156268796
 11
46.1538289318
 21
38.211245249
 12
45.3361721824
 22
38.211245249
 13
45.3361721824
 23
38.211245249
  0
SOLID
  8
0
 62
7
  6
CONTINUOUS
 10
45.0581380649
 20
37.7937195266
 11
45.3361721824
 21
38.211245249
 12
46.1538289318
 22
38.211245249
 13
46.1538289318
 23
38.211245249
  0
SOLID
  8
0
 62
7
  6
CONTINUOUS
 10
45.6897847323
 20
37.8981010277
 11
45.0581380649
 21
37.7937195266
 12
45.9310082998
 22
38.10686403
 13
45.9310082998
 23
38.10686403
  0
SOLID
  8
0
 62
7
  6
CONTINUOUS
 10
45.0581380649
 20
37.7937195266
 11
46.1538289318
 21
38.2112453694
 12
45.9310082998
 22
38.10686403
 13
45.9310082998
 23
38.10686403
  0
SOLID
  8
0
 62
7
  6
CONTINUOUS
 10
45.6897847323
 20
37.8981010277
 11
45.532361229
 21
37.5849565242
 12
45.0581380649
 22
37.7937195266
 13
45.0581380649
 23
37.7937195266
  0
SOLID
  8
0
 62
7
  6
CONTINUOUS
 10
45.0029222401
 20
37.4805747973
 11
45.0581380649
 21
37.7937195266
 12
45.532361229
 22
37.5849565242
 13
45.532361229
 23
37.5849565242
  0
SOLID
  8
0
 62
7
  6
CONTINUOUS
 10
45.532361229
 20
37.5849565242
 11
45.4955506661
 21
37.376193287
 12
45.0029222401
 22
37.4805747973
 13
45.0029222401
 23
37.4805747973
  0
SOLID
  8
0
 62
7
  6
CONTINUOUS
 10
45.031508806
 20
37.0630487561
 11
45.0029222401
 21
37.4805747973
 12
45.4955506661
 22
37.376193287
 13
45.4955506661
 23
37.376193287
  0
SOLID
  8
0
 62
7
  6
CONTINUOUS
 10
47.5949060381
 20
37.6893380254
 11
48.0507239142
 21
37.376193287
 12
47.4558878096
 22
37.4805747973
 13
47.4558878096
 23
37.4805747973
  0
SOLID
  8
0
 62
7
  6
CONTINUOUS
 10
47.0940512757
 20
37.1674302664
 11
47.4558878096
 21
37.4805747973
 12
48.0507239142
 22
37.376193287
 13
48.0507239142
 23
37.376193287
  0
SOLID
  8
0
 62
7
  6
CONTINUOUS
 10
47.0940512757
 20
37.1674302664
 11
48.0507239142
 21
37.376193287
 12
47.4844743755
 22
37.0630487561
 13
47.4844743755
 23
37.0630487561
  0
SOLID
  8
0
 62
7
  6
CONTINUOUS
 10
48.0507239142
 20
37.376193287
 11
48.0609052116
 21
36.8542857356
 12
47.4844743755
 22
37.0630487561
 13
47.4844743755
 23
37.0630487561
  0
SOLID
  8
0
 62
7
  6
CONTINUOUS
 10
47.5314638802
 20
36.7499042253
 11
47.4844743755
 21
37.0630487561
 12
48.0609052116
 22
36.8542857356
 13
48.0609052116
 23
36.8542857356
  0
SOLID
  8
0
 62
7
  6
CONTINUOUS
 10
47.5314638802
 20
36.7499042253
 11
48.0609052116
 21
36.8542857356
 12
47.5968610056
 22
36.5411410697
 13
47.5968610056
 23
36.5411410697
  0
SOLID
  8
0
 62
7
  6
CONTINUOUS
 10
48.0609052116
 20
36.8542857356
 11
48.1078947195
 21
36.5411410697
 12
47.5968610056
 22
36.5411410697
 13
47.5968610056
 23
36.5411410697
  0
SOLID
  8
0
 62
7
  6
CONTINUOUS
 10
45.031508806
 20
37.0630487561
 11
45.4955506661
 21
37.376193287
 12
45.5609477948
 22
37.1674302664
 13
45.5609477948
 23
37.1674302664
  0
SOLID
  8
0
 62
7
  6
CONTINUOUS
 10
45.5609477948
 20
37.1674302664
 11
45.9329656132
 21
36.9586672458
 12
45.031508806
 22
37.0630487561
 13
45.031508806
 23
37.0630487561
  0
SOLID
  8
0
 62
7
  6
CONTINUOUS
 10
45.2829136677
 20
36.7499042253
 11
45.031508806
 21
37.0630487561
 12
45.9329656132
 22
36.9586672458
 13
45.9329656132
 23
36.9586672458
  0
SOLID
  8
0
 62
7
  6
CONTINUOUS
 10
46.5462070056
 20
36.9586671871
 11
47.0940512757
 21
37.1674302664
 12
47.4844743755
 22
37.0630487561
 13
47.4844743755
 23
37.0630487561
  0
SOLID
  8
0
 62
7
  6
CONTINUOUS
 10
47.4844743755
 20
37.0630487561
 11
47.3454561407
 21
36.8542857356
 12
46.5462070056
 22
36.9586671871
 13
46.5462070056
 23
36.9586671871
  0
SOLID
  8
0
 62
7
  6
CONTINUOUS
 10
47.3454561407
 20
36.8542857356
 11
45.2829136677
 21
36.7499042253
 12
46.5462070056
 22
36.9586671871
 13
46.5462070056
 23
36.9586671871
  0
SOLID
  8
0
 62
7
  6
CONTINUOUS
 10
45.2829136677
 20
36.7499042253
 11
45.9329656132
 21
36.9586671871
 12
46.5462070056
 22
36.9586671871
 13
46.5462070056
 23
36.9586671871
  0
SOLID
  8
0
 62
7
  6
CONTINUOUS
 10
45.2829136677
 20
36.7499042253
 11
47.3454561407
 21
36.8542857356
 12
45.4689214088
 22
36.6455226562
 13
45.4689214088
 23
36.6455226562
  0
SOLID
  8
0
 62
7
  6
CONTINUOUS
 10
47.3454561407
 20
36.8542857356
 11
47.0020248898
 21
36.6455226562
 12
45.4689214088
 22
36.6455226562
 13
45.4689214088
 23
36.6455226562
  0
SOLID
  8
0
 62
7
  6
CONTINUOUS
 10
45.8593445069
 20
36.5411409371
 11
45.4689214088
 21
36.6455226562
 12
47.0020248898
 22
36.6455226562
 13
47.0020248898
 23
36.6455226562
  0
SOLID
  8
0
 62
7
  6
CONTINUOUS
 10
47.0020248898
 20
36.6455226562
 11
46.4725858993
 21
36.5411409371
 12
45.8593445069
 22
36.5411409371
 13
45.8593445069
 23
36.5411409371
  0
SOLID
  8
0
 62
7
  6
CONTINUOUS
 10
44.079149021
 20
39.7769681947
 11
44.6085891794
 21
39.8813492665
 12
43.7541230498
 22
39.6725866936
 13
43.7541230498
 23
39.6725866936
  0
SOLID
  8
0
 62
7
  6
CONTINUOUS
 10
43.7541230498
 20
39.6725866936
 11
44.6085891794
 21
39.8813492665
 12
43.4106918038
 22
39.4638236912
 13
43.4106918038
 23
39.4638236912
  0
SOLID
  8
0
 62
7
  6
CONTINUOUS
 10
44.6085891794
 20
39.8813492665
 11
44.5165628048
 21
39.3594421901
 12
43.4106918038
 22
39.4638236912
 13
43.4106918038
 23
39.4638236912
  0
SOLID
  8
0
 62
7
  6
CONTINUOUS
 10
43.1694670665
 20
39.2550602047
 11
43.4106918038
 21
39.4638236912
 12
44.5165628048
 22
39.3594421901
 13
44.5165628048
 23
39.3594421901
  0
SOLID
  8
0
 62
7
  6
CONTINUOUS
 10
44.5165628048
 20
39.3594421901
 11
43.8849149678
 21
39.2550602047
 12
43.1694670665
 22
39.2550602047
 13
43.1694670665
 23
39.2550602047
  0
SOLID
  8
0
 62
7
  6
CONTINUOUS
 10
43.8849149678
 20
39.2550602047
 11
43.4392772129
 21
39.0462976866
 12
43.1694670665
 22
39.2550602047
 13
43.1694670665
 23
39.2550602047
  0
SOLID
  8
0
 62
7
  6
CONTINUOUS
 10
43.4392772129
 20
39.0462976866
 11
43.0590354169
 21
38.628771682
 12
43.1694670665
 22
39.2550602047
 13
43.1694670665
 23
39.2550602047
  0
SOLID
  8
0
 62
7
  6
CONTINUOUS
 10
43.0590354169
 20
38.628771682
 11
42.179894983
 21
36.5411409371
 12
43.1694670665
 22
39.2550602047
 13
43.1694670665
 23
39.2550602047
  0
SOLID
  8
0
 62
7
  6
CONTINUOUS
 10
43.1694670665
 20
39.2550602047
 11
42.179894983
 21
36.5411409371
 12
43.2798987162
 22
39.8813492665
 13
43.2798987162
 23
39.8813492665
  0
SOLID
  8
0
 62
7
  6
CONTINUOUS
 10
42.179894983
 20
36.5411409371
 11
42.7688638327
 21
39.8813492665
 12
43.2798987162
 22
39.8813492665
 13
43.2798987162
 23
39.8813492665
  0
SOLID
  8
0
 62
7
  6
CONTINUOUS
 10
43.0590354169
 20
38.628771682
 11
42.6909298665
 21
36.5411409371
 12
42.179894983
 22
36.5411409371
 13
42.179894983
 23
36.5411409371
  0
SOLID
  8
0
 62
7
  6
CONTINUOUS
 10
40.4181059416
 20
39.8813496958
 11
41.0129420591
 21
39.7769688889
 12
39.7864592743
 22
39.7769688889
 13
39.7864592743
 23
39.7769688889
  0
SOLID
  8
0
 62
7
  6
CONTINUOUS
 10
39.4614333031
 20
39.6725866936
 11
39.7864592743
 21
39.7769688889
 12
41.0129420591
 22
39.7769688889
 13
41.0129420591
 23
39.7769688889
  0
SOLID
  8
0
 62
7
  6
CONTINUOUS
 10
39.4614333031
 20
39.6725866936
 11
41.0129420591
 21
39.7769688889
 12
39.1180020571
 22
39.4638235009
 13
39.1180020571
 23
39.4638235009
  0
SOLID
  8
0
 62
7
  6
CONTINUOUS
 10
39.1180020571
 20
39.4638235009
 11
41.0129420591
 21
39.7769688889
 12
40.2422771634
 22
39.4638235009
 13
40.2422771634
 23
39.4638235009
  0
SOLID
  8
0
 62
7
  6
CONTINUOUS
 10
41.0129420591
 20
39.7769688889
 11
41.4687599481
 21
39.4638235009
 12
40.2422771634
 22
39.4638235009
 13
40.2422771634
 23
39.4638235009
  0
SOLID
  8
0
 62
7
  6
CONTINUOUS
 10
40.8371132808
 20
39.3594419826
 11
40.2422771634
 21
39.4638235009
 12
41.4687599481
 22
39.4638235009
 13
41.4687599481
 23
39.4638235009
  0
SOLID
  8
0
 62
7
  6
CONTINUOUS
 10
38.8767773198
 20
39.2550604723
 11
39.1180020571
 21
39.4638235009
 12
40.2422771634
 22
39.4638235009
 13
40.2422771634
 23
39.4638235009
  0
SOLID
  8
0
 62
7
  6
CONTINUOUS
 10
40.8371132808
 20
39.3594419826
 11
41.4687599481
 21
39.4638235009
 12
41.1069234271
 22
39.1506791878
 13
41.1069234271
 23
39.1506791878
  0
SOLID
  8
0
 62
7
  6
CONTINUOUS
 10
41.4687599481
 20
39.4638235009
 11
41.7017595445
 21
39.0462976866
 12
41.1069234271
 22
39.1506791878
 13
41.1069234271
 23
39.1506791878
  0
SOLID
  8
0
 62
7
  6
CONTINUOUS
 10
41.2561217897
 20
38.8375350213
 11
41.1069234271
 21
39.1506791878
 12
41.7017595445
 22
39.0462976866
 13
41.7017595445
 23
39.0462976866
  0
SOLID
  8
0
 62
7
  6
CONTINUOUS
 10
41.2561217897
 20
38.8375350213
 11
41.7017595445
 21
39.0462976866
 12
41.2193112397
 22
38.6287721948
 13
41.2193112397
 23
38.6287721948
  0
SOLID
  8
0
 62
7
  6
CONTINUOUS
 10
41.7017595445
 20
39.0462976866
 11
41.7303461233
 21
38.6287721948
 12
41.2193112397
 22
38.6287721948
 13
41.2193112397
 23
38.6287721948
  0
SOLID
  8
0
 62
7
  6
CONTINUOUS
 10
41.7303461233
 20
38.6287721948
 11
38.3861038485
 21
38.2112442454
 12
41.2193112397
 22
38.6287721948
 13
41.2193112397
 23
38.6287721948
  0
SOLID
  8
0
 62
7
  6
CONTINUOUS
 10
41.2193112397
 20
38.6287721948
 11
38.3861038485
 21
38.2112442454
 12
39.0729663664
 22
38.6287721948
 13
39.0729663664
 23
38.6287721948
  0
SOLID
  8
0
 62
7
  6
CONTINUOUS
 10
39.0729663664
 20
38.6287721948
 11
38.3861038485
 21
38.2112442454
 12
39.0913716414
 22
38.7331531832
 13
39.0913716414
 23
38.7331531832
  0
SOLID
  8
0
 62
7
  6
CONTINUOUS
 10
38.3861038485
 20
38.2112442454
 11
38.5987420327
 21
38.8375350213
 12
39.0913716414
 22
38.7331531832
 13
39.0913716414
 23
38.7331531832
  0
SOLID
  8
0
 62
7
  6
CONTINUOUS
 10
38.3861038485
 20
38.2112442454
 11
41.7303461233
 21
38.6287721948
 12
38.897138732
 22
38.2112442454
 13
38.897138732
 23
38.2112442454
  0
SOLID
  8
0
 62
7
  6
CONTINUOUS
 10
41.7303461233
 20
38.6287721948
 11
41.6567249977
 21
38.2112442454
 12
38.897138732
 22
38.2112442454
 13
38.897138732
 23
38.2112442454
  0
SOLID
  8
0
 62
7
  6
CONTINUOUS
 10
38.3778787077
 20
37.5849563076
 11
38.3861038485
 21
38.2112442454
 12
38.897138732
 22
38.2112442454
 13
38.897138732
 23
38.2112442454
  0
SOLID
  8
0
 62
7
  6
CONTINUOUS
 10
38.8767773198
 20
39.2550606223
 11
40.2422771634
 21
39.4638234929
 12
39.8150446834
 22
39.3594419826
 13
39.8150446834
 23
39.3594419826
  0
SOLID
  8
0
 62
7
  6
CONTINUOUS
 10
39.8150446834
 20
39.3594419826
 11
39.5922252211
 21
39.2550606223
 12
38.8767773198
 22
39.2550606223
 13
38.8767773198
 23
39.2550606223
  0
SOLID
  8
0
 62
7
  6
CONTINUOUS
 10
38.5987420327
 20
38.8375344311
 11
38.8767773198
 21
39.2550606223
 12
39.5922252211
 22
39.2550606223
 13
39.5922252211
 23
39.2550606223
  0
SOLID
  8
0
 62
7
  6
CONTINUOUS
 10
39.2303887001
 20
38.9419161854
 11
39.0913716414
 21
38.7331531832
 12
39.5922252211
 22
39.2550604723
 13
38.5987420327
 23
38.8375344311
  0
SOLID
  8
0
 62
7
  6
CONTINUOUS
 10
38.9073188662
 20
37.6893380254
 11
38.3778787077
 21
37.5849563076
 12
38.8603281822
 22
38.0024825289
 13
38.8603281822
 23
38.0024825289
  0
SOLID
  8
0
 62
7
  6
CONTINUOUS
 10
38.3778787077
 20
37.5849563076
 11
38.897138732
 21
38.2112453694
 12
38.8603281822
 22
38.0024825289
 13
38.8603281822
 23
38.0024825289
  0
SOLID
  8
0
 62
7
  6
CONTINUOUS
 10
38.9073188662
 20
37.6893380254
 11
38.9727148252
 21
37.4805750231
 12
38.3778787077
 22
37.5849563076
 13
38.3778787077
 23
37.5849563076
  0
SOLID
  8
0
 62
7
  6
CONTINUOUS
 10
38.5086717824
 20
37.1674299989
 11
38.3778787077
 21
37.5849563076
 12
38.9727148252
 22
37.4805750231
 13
38.9727148252
 23
37.4805750231
  0
SOLID
  8
0
 62
7
  6
CONTINUOUS
 10
38.9727148252
 20
37.4805750231
 11
39.2241196836
 21
37.1674299989
 12
38.5086717824
 22
37.1674299989
 13
38.5086717824
 23
37.1674299989
  0
SOLID
  8
0
 62
7
  6
CONTINUOUS
 10
38.6762754134
 20
36.9586672458
 11
38.5086717824
 21
37.1674299989
 12
39.2241196836
 22
37.1674299989
 13
39.2241196836
 23
37.1674299989
  0
SOLID
  8
0
 62
7
  6
CONTINUOUS
 10
40.877836118
 20
37.2718119477
 11
41.0352584646
 21
37.5849566852
 12
41.5462933481
 22
37.5849566852
 13
41.5462933481
 23
37.5849566852
  0
SOLID
  8
0
 62
7
  6
CONTINUOUS
 10
41.5462933481
 20
37.5849566852
 11
41.370464557
 21
37.1674302664
 12
40.877836118
 22
37.2718119477
 13
40.877836118
 23
37.2718119477
  0
SOLID
  8
0
 62
7
  6
CONTINUOUS
 10
40.5344048719
 20
37.0630487561
 11
40.877836118
 21
37.2718119477
 12
41.370464557
 22
37.1674302664
 13
41.370464557
 23
37.1674302664
  0
SOLID
  8
0
 62
7
  6
CONTINUOUS
 10
40.5344048719
 20
37.0630487561
 11
41.370464557
 21
37.1674302664
 12
39.8005505197
 22
36.9586677206
 13
39.8005505197
 23
36.9586677206
  0
SOLID
  8
0
 62
7
  6
CONTINUOUS
 10
41.370464557
 20
37.1674302664
 11
41.0086280295
 21
36.8542859065
 12
39.8005505197
 22
36.9586677206
 13
39.8005505197
 23
36.9586677206
  0
SOLID
  8
0
 62
7
  6
CONTINUOUS
 10
41.0086280295
 20
36.8542859065
 11
38.9460855565
 21
36.7499043871
 12
39.8005505197
 22
36.9586677206
 13
39.8005505197
 23
36.9586677206
  0
SOLID
  8
0
 62
7
  6
CONTINUOUS
 10
38.9460855565
 20
36.7499043871
 11
38.6762754134
 21
36.9586677206
 12
39.8005505197
 22
36.9586677206
 13
39.8005505197
 23
36.9586677206
  0
SOLID
  8
0
 62
7
  6
CONTINUOUS
 10
38.9460855565
 20
36.7499043871
 11
41.0086280295
 21
36.8542859065
 12
39.2343009762
 22
36.6455221944
 13
39.2343009762
 23
36.6455221944
  0
SOLID
  8
0
 62
7
  6
CONTINUOUS
 10
41.0086280295
 20
36.8542859065
 11
40.5629902697
 21
36.6455221944
 12
39.2343009762
 22
36.6455221944
 13
39.2343009762
 23
36.6455221944
  0
SOLID
  8
0
 62
7
  6
CONTINUOUS
 10
39.829137092
 20
36.5411413665
 11
39.2343009762
 21
36.6455221944
 12
40.5629902697
 22
36.6455221944
 13
40.5629902697
 23
36.6455221944
  0
SOLID
  8
0
 62
7
  6
CONTINUOUS
 10
39.4101285961
 20
37.0630487561
 11
39.8005505197
 21
36.9586672458
 12
39.2241196836
 22
37.1674302664
 13
38.6762754134
 23
36.9586672458
  0
SOLID
  8
0
 62
7
  6
CONTINUOUS
 10
34.7783204567
 20
39.7769677562
 11
35.1033464279
 21
39.8813492665
 12
35.5121748026
 22
39.8813492665
 13
35.5121748026
 23
39.8813492665
  0
SOLID
  8
0
 62
7
  6
CONTINUOUS
 10
35.5121748026
 20
39.8813492665
 11
35.8003902238
 21
39.7769677562
 12
34.7783204567
 22
39.7769677562
 13
34.7783204567
 23
39.7769677562
  0
SOLID
  8
0
 62
7
  6
CONTINUOUS
 10
36.4136316162
 20
39.7769677562
 11
36.7386575873
 21
39.8813492665
 12
37.1474847923
 22
39.8813492665
 13
37.1474847923
 23
39.8813492665
  0
SOLID
  8
0
 62
7
  6
CONTINUOUS
 10
37.1474847923
 20
39.8813492665
 11
37.4357002136
 21
39.7769677562
 12
36.4136316162
 22
39.7769677562
 13
36.4136316162
 23
39.7769677562
  0
SOLID
  8
0
 62
7
  6
CONTINUOUS
 10
34.5370968892
 20
39.5682047356
 11
34.7783204567
 21
39.7769677562
 12
35.8003902238
 22
39.7769677562
 13
35.8003902238
 23
39.7769677562
  0
SOLID
  8
0
 62
7
  6
CONTINUOUS
 10
34.5370968892
 20
39.5682047356
 11
35.8003902238
 21
39.7769677562
 12
35.0297253281
 22
39.4638232253
 13
35.0297253281
 23
39.4638232253
  0
SOLID
  8
0
 62
7
  6
CONTINUOUS
 10
35.0297253281
 20
39.4638232253
 11
35.8003902238
 21
39.7769677562
 12
35.2341395155
 22
39.4638232253
 13
35.2341395155
 23
39.4638232253
  0
SOLID
  8
0
 62
7
  6
CONTINUOUS
 10
35.8003902238
 20
39.7769677562
 11
36.0517950952
 21
39.4638232253
 12
35.2341395155
 22
39.4638232253
 13
35.2341395155
 23
39.4638232253
  0
SOLID
  8
0
 62
7
  6
CONTINUOUS
 10
37.6033038511
 20
39.5682047356
 11
36.0517950952
 21
39.4638232253
 12
37.4357002136
 22
39.7769677562
 13
37.4357002136
 23
39.7769677562
  0
SOLID
  8
0
 62
7
  6
CONTINUOUS
 10
36.0517950952
 20
39.4638232253
 11
36.4136316162
 21
39.7769677562
 12
37.4357002136
 22
39.7769677562
 13
37.4357002136
 23
39.7769677562
  0
SOLID
  8
0
 62
7
  6
CONTINUOUS
 10
36.5628288091
 20
39.4638232253
 11
35.4201484279
 21
39.359441715
 12
36.0517950952
 22
39.4638232253
 13
36.0517950952
 23
39.4638232253
  0
SOLID
  8
0
 62
7
  6
CONTINUOUS
 10
35.4201484279
 20
39.359441715
 11
35.2341395155
 21
39.4638232253
 12
36.0517950952
 22
39.4638232253
 13
36.0517950952
 23
39.4638232253
  0
SOLID
  8
0
 62
7
  6
CONTINUOUS
 10
36.5628288091
 20
39.4638232253
 11
36.3400105165
 21
39.359441715
 12
35.4201484279
 22
39.359441715
 13
35.4201484279
 23
39.359441715
  0
SOLID
  8
0
 62
7
  6
CONTINUOUS
 10
35.5039496617
 20
39.2550602047
 11
35.4201484279
 21
39.359441715
 12
36.3400105165
 22
39.359441715
 13
36.3400105165
 23
39.359441715
  0
SOLID
  8
0
 62
7
  6
CONTINUOUS
 10
36.3400105165
 20
39.359441715
 11
36.219397563
 21
39.2550602047
 12
35.5039496617
 22
39.2550602047
 13
35.5039496617
 23
39.2550602047
  0
SOLID
  8
0
 62
7
  6
CONTINUOUS
 10
35.5693456207
 20
39.0462971841
 11
35.5039496617
 21
39.2550602047
 12
36.219397563
 22
39.2550602047
 13
36.219397563
 23
39.2550602047
  0
SOLID
  8
0
 62
7
  6
CONTINUOUS
 10
36.219397563
 20
39.2550602047
 11
36.0803805043
 21
39.0462971841
 12
35.5693456207
 22
39.0462971841
 13
35.5693456207
 23
39.0462971841
  0
SOLID
  8
0
 62
7
  6
CONTINUOUS
 10
36.0517950952
 20
39.4638232253
 11
37.6033038511
 21
39.5682047356
 12
36.5628288091
 22
39.4638232253
 13
36.5628288091
 23
39.4638232253
  0
SOLID
  8
0
 62
7
  6
CONTINUOUS
 10
36.5628288091
 20
39.4638232253
 11
37.6033038511
 21
39.5682047356
 12
36.8694495052
 22
39.4638232253
 13
36.8694495052
 23
39.4638232253
  0
SOLID
  8
0
 62
7
  6
CONTINUOUS
 10
36.8694495052
 20
39.4638232253
 11
37.6033038511
 21
39.5682047356
 12
37.0554584177
 22
39.359441715
 13
37.0554584177
 23
39.359441715
  0
SOLID
  8
0
 62
7
  6
CONTINUOUS
 10
37.0554584177
 20
39.359441715
 11
37.6033038511
 21
39.5682047356
 12
37.1392596516
 22
39.2550602047
 13
37.1392596516
 23
39.2550602047
  0
SOLID
  8
0
 62
7
  6
CONTINUOUS
 10
37.1392596516
 20
39.2550602047
 11
37.6033038511
 21
39.5682047356
 12
37.2046567802
 22
39.0462971841
 13
37.2046567802
 23
39.0462971841
  0
SOLID
  8
0
 62
7
  6
CONTINUOUS
 10
37.6033038511
 20
39.5682047356
 11
37.715690494
 21
39.0462971841
 12
37.2046567802
 22
39.0462971841
 13
37.2046567802
 23
39.0462971841
  0
SOLID
  8
0
 62
7
  6
CONTINUOUS
 10
35.0297253281
 20
39.4638232253
 11
34.7046993569
 21
39.359441715
 12
34.5370968892
 22
39.5682047356
 13
34.5370968892
 23
39.5682047356
  0
SOLID
  8
0
 62
7
  6
CONTINUOUS
 10
34.7046993569
 20
39.359441715
 11
34.4634757894
 21
39.1506791878
 12
34.5370968892
 22
39.5682047356
 13
34.5370968892
 23
39.5682047356
  0
SOLID
  8
0
 62
7
  6
CONTINUOUS
 10
34.4634757894
 20
39.1506791878
 11
33.4923089808
 21
36.5411409371
 12
34.5370968892
 22
39.5682047356
 13
34.5370968892
 23
39.5682047356
  0
SOLID
  8
0
 62
7
  6
CONTINUOUS
 10
34.5370968892
 20
39.5682047356
 11
33.4923089808
 21
36.5411409371
 12
34.592312714
 22
39.8813492665
 13
34.592312714
 23
39.8813492665
  0
SOLID
  8
0
 62
7
  6
CONTINUOUS
 10
33.4923089808
 20
36.5411409371
 11
34.0812778304
 21
39.8813492665
 12
34.592312714
 22
39.8813492665
 13
34.592312714
 23
39.8813492665
  0
SOLID
  8
0
 62
7
  6
CONTINUOUS
 10
34.4634757894
 20
39.1506791878
 11
34.0033438643
 21
36.5411409371
 12
33.4923089808
 22
36.5411409371
 13
33.4923089808
 23
36.5411409371
  0
SOLID
  8
0
 62
7
  6
CONTINUOUS
 10
35.1276189706
 20
36.5411409371
 11
35.5693456207
 21
39.0462971841
 12
36.0803805043
 22
39.0462971841
 13
36.0803805043
 23
39.0462971841
  0
SOLID
  8
0
 62
7
  6
CONTINUOUS
 10
36.0803805043
 20
39.0462971841
 11
35.6386538541
 21
36.5411409371
 12
35.1276189706
 22
36.5411409371
 13
35.1276189706
 23
36.5411409371
  0
SOLID
  8
0
 62
7
  6
CONTINUOUS
 10
36.7629301301
 20
36.5411409371
 11
37.2046567802
 21
39.0462971841
 12
37.715690494
 22
39.0462971841
 13
37.715690494
 23
39.0462971841
  0
SOLID
  8
0
 62
7
  6
CONTINUOUS
 10
37.715690494
 20
39.0462971841
 11
37.273963844
 21
36.5411409371
 12
36.7629301301
 22
36.5411409371
 13
36.7629301301
 23
36.5411409371
  0
SOLID
  8
0
 62
7
  6
CONTINUOUS
 10
30.1790105987
 20
39.7769677562
 11
30.5040365698
 21
39.8813492665
 12
30.9128637748
 22
39.8813492665
 13
30.9128637748
 23
39.8813492665
  0
SOLID
  8
0
 62
7
  6
CONTINUOUS
 10
30.9128637748
 20
39.8813492665
 11
31.2010791961
 21
39.7769677562
 12
30.1790105987
 22
39.7769677562
 13
30.1790105987
 23
39.7769677562
  0
SOLID
  8
0
 62
7
  6
CONTINUOUS
 10
31.8143205885
 20
39.7769677562
 11
32.1393465596
 21
39.8813492665
 12
32.5481743495
 22
39.8813492665
 13
32.5481743495
 23
39.8813492665
  0
SOLID
  8
0
 62
7
  6
CONTINUOUS
 10
32.5481743495
 20
39.8813492665
 11
32.8363897708
 21
39.7769677562
 12
31.8143205885
 22
39.7769677562
 13
31.8143205885
 23
39.7769677562
  0
SOLID
  8
0
 62
7
  6
CONTINUOUS
 10
29.9377858614
 20
39.5682047356
 11
30.1790105987
 21
39.7769677562
 12
31.2010791961
 22
39.7769677562
 13
31.2010791961
 23
39.7769677562
  0
SOLID
  8
0
 62
7
  6
CONTINUOUS
 10
29.9377858614
 20
39.5682047356
 11
31.2010791961
 21
39.7769677562
 12
30.43041547
 22
39.4638232253
 13
30.43041547
 23
39.4638232253
  0
SOLID
  8
0
 62
7
  6
CONTINUOUS
 10
30.43041547
 20
39.4638232253
 11
31.2010791961
 21
39.7769677562
 12
30.6348290726
 22
39.4638232253
 13
30.6348290726
 23
39.4638232253
  0
SOLID
  8
0
 62
7
  6
CONTINUOUS
 10
31.2010791961
 20
39.7769677562
 11
31.4524840675
 21
39.4638232253
 12
30.6348290726
 22
39.4638232253
 13
30.6348290726
 23
39.4638232253
  0
SOLID
  8
0
 62
7
  6
CONTINUOUS
 10
33.0039928233
 20
39.5682047356
 11
31.4524840675
 21
39.4638232253
 12
32.8363897708
 22
39.7769677562
 13
32.8363897708
 23
39.7769677562
  0
SOLID
  8
0
 62
7
  6
CONTINUOUS
 10
31.4524840675
 20
39.4638232253
 11
31.8143205885
 21
39.7769677562
 12
32.8363897708
 22
39.7769677562
 13
32.8363897708
 23
39.7769677562
  0
SOLID
  8
0
 62
7
  6
CONTINUOUS
 10
31.963518951
 20
39.4638232253
 11
30.8208374001
 21
39.359441715
 12
31.4524840675
 22
39.4638232253
 13
31.4524840675
 23
39.4638232253
  0
SOLID
  8
0
 62
7
  6
CONTINUOUS
 10
30.8208374001
 20
39.359441715
 11
30.6348290726
 21
39.4638232253
 12
31.4524840675
 22
39.4638232253
 13
31.4524840675
 23
39.4638232253
  0
SOLID
  8
0
 62
7
  6
CONTINUOUS
 10
31.963518951
 20
39.4638232253
 11
31.7406994887
 21
39.359441715
 12
30.8208374001
 22
39.359441715
 13
30.8208374001
 23
39.359441715
  0
SOLID
  8
0
 62
7
  6
CONTINUOUS
 10
30.9046392189
 20
39.2550602047
 11
30.8208374001
 21
39.359441715
 12
31.7406994887
 22
39.359441715
 13
31.7406994887
 23
39.359441715
  0
SOLID
  8
0
 62
7
  6
CONTINUOUS
 10
31.7406994887
 20
39.359441715
 11
31.6200877049
 21
39.2550602047
 12
30.9046392189
 22
39.2550602047
 13
30.9046392189
 23
39.2550602047
  0
SOLID
  8
0
 62
7
  6
CONTINUOUS
 10
30.9700357627
 20
39.0462971841
 11
30.9046392189
 21
39.2550602047
 12
31.6200877049
 22
39.2550602047
 13
31.6200877049
 23
39.2550602047
  0
SOLID
  8
0
 62
7
  6
CONTINUOUS
 10
31.6200877049
 20
39.2550602047
 11
31.4810700614
 21
39.0462971841
 12
30.9700357627
 22
39.0462971841
 13
30.9700357627
 23
39.0462971841
  0
SOLID
  8
0
 62
7
  6
CONTINUOUS
 10
31.4524840675
 20
39.4638232253
 11
33.0039928233
 21
39.5682047356
 12
31.963518951
 22
39.4638232253
 13
31.963518951
 23
39.4638232253
  0
SOLID
  8
0
 62
7
  6
CONTINUOUS
 10
31.963518951
 20
39.4638232253
 11
33.0039928233
 21
39.5682047356
 12
32.2701396472
 22
39.4638232253
 13
32.2701396472
 23
39.4638232253
  0
SOLID
  8
0
 62
7
  6
CONTINUOUS
 10
32.2701396472
 20
39.4638232253
 11
33.0039928233
 21
39.5682047356
 12
32.4561479748
 22
39.359441715
 13
32.4561479748
 23
39.359441715
  0
SOLID
  8
0
 62
7
  6
CONTINUOUS
 10
32.4561479748
 20
39.359441715
 11
33.0039928233
 21
39.5682047356
 12
32.5399497935
 22
39.2550602047
 13
32.5399497935
 23
39.2550602047
  0
SOLID
  8
0
 62
7
  6
CONTINUOUS
 10
32.5399497935
 20
39.2550602047
 11
33.0039928233
 21
39.5682047356
 12
32.6053457525
 22
39.0462971841
 13
32.6053457525
 23
39.0462971841
  0
SOLID
  8
0
 62
7
  6
CONTINUOUS
 10
33.0039928233
 20
39.5682047356
 11
33.116380636
 21
39.0462971841
 12
32.6053457525
 22
39.0462971841
 13
32.6053457525
 23
39.0462971841
  0
SOLID
  8
0
 62
7
  6
CONTINUOUS
 10
30.43041547
 20
39.4638232253
 11
30.1053894989
 21
39.359441715
 12
29.9377858614
 22
39.5682047356
 13
29.9377858614
 23
39.5682047356
  0
SOLID
  8
0
 62
7
  6
CONTINUOUS
 10
30.1053894989
 20
39.359441715
 11
29.8641647617
 21
39.1506791878
 12
29.9377858614
 22
39.5682047356
 13
29.9377858614
 23
39.5682047356
  0
SOLID
  8
0
 62
7
  6
CONTINUOUS
 10
29.8641647617
 20
39.1506791878
 11
28.8929985379
 21
36.5411409371
 12
29.9377858614
 22
39.5682047356
 13
29.9377858614
 23
39.5682047356
  0
SOLID
  8
0
 62
7
  6
CONTINUOUS
 10
29.9377858614
 20
39.5682047356
 11
28.8929985379
 21
36.5411409371
 12
29.9930016862
 22
39.8813492665
 13
29.9930016862
 23
39.8813492665
  0
SOLID
  8
0
 62
7
  6
CONTINUOUS
 10
28.8929985379
 20
36.5411409371
 11
29.4819673876
 21
39.8813492665
 12
29.9930016862
 22
39.8813492665
 13
29.9930016862
 23
39.8813492665
  0
SOLID
  8
0
 62
7
  6
CONTINUOUS
 10
29.8641647617
 20
39.1506791878
 11
29.4040328367
 21
36.5411409371
 12
28.8929985379
 22
36.5411409371
 13
28.8929985379
 23
36.5411409371
  0
SOLID
  8
0
 62
7
  6
CONTINUOUS
 10
30.5283091125
 20
36.5411409371
 11
30.9700357627
 21
39.0462971841
 12
31.4810700614
 22
39.0462971841
 13
31.4810700614
 23
39.0462971841
  0
SOLID
  8
0
 62
7
  6
CONTINUOUS
 10
31.4810700614
 20
39.0462971841
 11
31.0393434112
 21
36.5411409371
 12
30.5283091125
 22
36.5411409371
 13
30.5283091125
 23
36.5411409371
  0
SOLID
  8
0
 62
7
  6
CONTINUOUS
 10
32.1636191024
 20
36.5411409371
 11
32.6053457525
 21
39.0462971841
 12
33.116380636
 22
39.0462971841
 13
33.116380636
 23
39.0462971841
  0
SOLID
  8
0
 62
7
  6
CONTINUOUS
 10
33.116380636
 20
39.0462971841
 11
32.6746539859
 21
36.5411409371
 12
32.1636191024
 22
36.5411409371
 13
32.1636191024
 23
36.5411409371
  0
SOLID
  8
0
 62
7
  6
CONTINUOUS
 10
27.2455519843
 20
38.211242867
 11
25.2299996869
 21
37.7937186915
 12
25.4058277341
 22
38.211242867
 13
25.4058277341
 23
38.211242867
  0
SOLID
  8
0
 62
7
  6
CONTINUOUS
 10
25.2299996869
 20
37.7937186915
 11
23.9870673988
 21
36.541141259
 12
25.4058277341
 22
38.211242867
 13
25.4058277341
 23
38.211242867
  0
SOLID
  8
0
 62
7
  6
CONTINUOUS
 10
25.4058277341
 20
38.211242867
 11
23.9870673988
 21
36.541141259
 12
26.8226322503
 22
41.0295465009
 13
26.8226322503
 23
41.0295465009
  0
SOLID
  8
0
 62
7
  6
CONTINUOUS
 10
23.9870673988
 20
36.541141259
 11
26.4874258526
 21
41.447072398
 12
26.8226322503
 22
41.0295465009
 13
26.8226322503
 23
41.0295465009
  0
SOLID
  8
0
 62
7
  6
CONTINUOUS
 10
25.2299996869
 20
37.7937186915
 11
24.6003087912
 21
36.541141259
 12
23.9870673988
 22
36.541141259
 13
23.9870673988
 23
36.541141259
  0
SOLID
  8
0
 62
7
  6
CONTINUOUS
 10
25.2299996869
 20
37.7937186915
 11
27.2455519843
 21
38.211242867
 12
27.2741376858
 22
37.7937186915
 13
27.2741376858
 23
37.7937186915
  0
SOLID
  8
0
 62
7
  6
CONTINUOUS
 10
27.2455519843
 20
38.211242867
 11
27.3050809937
 21
41.447072398
 12
27.2741376858
 22
37.7937186915
 13
27.2741376858
 23
37.7937186915
  0
SOLID
  8
0
 62
7
  6
CONTINUOUS
 10
27.2741376858
 20
37.7937186915
 11
27.3050809937
 21
41.447072398
 12
27.4621018582
 22
36.541141259
 13
27.4621018582
 23
36.541141259
  0
SOLID
  8
0
 62
7
  6
CONTINUOUS
 10
27.3050809937
 20
41.447072398
 11
28.0753432506
 21
36.541141259
 12
27.4621018582
 22
36.541141259
 13
27.4621018582
 23
36.541141259
  0
SOLID
  8
0
 62
7
  6
CONTINUOUS
 10
27.3050809937
 20
41.4470735879
 11
27.2455519843
 21
38.2112440568
 12
26.4874258526
 22
41.4470735879
 13
26.8226322503
 23
41.0295465009
  0
ENDBLK
  8
0
  6
BYBLOCK
 62
0
  0
BLOCK
  8
0
  2
_FILLED
 70
64
 10
0.0
 20
0.0
  0
SOLID
  8
0
  6
BYBLOCK
 62
0
 10
0.0
 20
0.0
 11
-1.0
 21
0.2142857143
 12
-1.0
 22
-0.2142857143
 13
-1.0
 23
-0.2142857143
  0
ENDBLK
  8
0
  6
BYBLOCK
 62
0
  0
BLOCK
  8
0
 62
2
  6
CONTINUOUS
  2
*D0
 70
65
 10
0.0
 20
0.0
  0
TEXT
  8
0
 62
5
  6
CONTINUOUS
 10
100.0583767361
 20
124.5445153581
  7
STANDARD
 40
3.5
  1
2
 41
0.8
 72
2
 11
102.8583767361
 21
124.5445153581
  0
TEXT
  8
0
 62
5
  6
CONTINUOUS
 10
102.8583767361
 20
124.5445153581
  7
STANDARD
 40
3.5
  1
X45°
 41
0.8
 72
2
 11
114.0583767361
 21
124.5445153581
  0
LINE
  8
0
 62
2
  6
CONTINUOUS
 10
121.189453125
 20
131.3199402674
 11
121.189453125
 21
121.6695153581
  0
LINE
  8
0
 62
2
  6
CONTINUOUS
 10
123.189453125
 20
129.3199402674
 11
123.189453125
 21
121.6695153581
  0
LINE
  8
0
 62
2
  6
CONTINUOUS
 10
121.189453125
 20
123.6695153581
 11
100.0583767361
 21
123.6695153581
  0
LINE
  8
0
 62
2
  6
CONTINUOUS
 10
100.0583767361
 20
123.6695153581
 11
122.189453125
 21
123.6695153581
  0
LINE
  8
0
 62
2
  6
CONTINUOUS
 10
123.189453125
 20
123.6695153581
 11
128.189453125
 21
123.6695153581
  0
LINE
  8
0
 62
2
  6
CONTINUOUS
 10
128.189453125
 20
123.6695153581
 11
122.189453125
 21
123.6695153581
  0
INSERT
  8
0
 62
2
  6
CONTINUOUS
  2
_FILLED
 10
121.189453125
 20
123.6695153581
 41
3.5
 42
3.5
 43
3.5
  0
INSERT
  8
0
 62
2
  6
CONTINUOUS
  2
_FILLED
 10
123.189453125
 20
123.6695153581
 41
3.5
 42
3.5
 43
3.5
 50
180.0
  0
ENDBLK
  8
0
  6
BYBLOCK
 62
0
  0
BLOCK
  8
0
 62
2
  6
CONTINUOUS
  2
*D1
 70
65
 10
0.0
 20
0.0
  0
TEXT
  8
0
 62
5
  6
CONTINUOUS
 10
135.589453125
 20
207.6909205987
  7
STANDARD
 40
3.5
  1
40.0
 41
0.8
 72
1
 11
141.189453125
 21
207.6909205987
  0
LINE
  8
0
 62
2
  6
CONTINUOUS
 10
161.189453125
 20
186.4631678543
 11
161.189453125
 21
208.8159205987
  0
LINE
  8
0
 62
2
  6
CONTINUOUS
 10
121.189453125
 20
186.4631678543
 11
121.189453125
 21
208.8159205987
  0
LINE
  8
0
 62
2
  6
CONTINUOUS
 10
161.189453125
 20
206.8159205987
 11
141.189453125
 21
206.8159205987
  0
LINE
  8
0
 62
2
  6
CONTINUOUS
 10
121.189453125
 20
206.8159205987
 11
141.189453125
 21
206.8159205987
  0
INSERT
  8
0
 62
2
  6
CONTINUOUS
  2
_FILLED
 10
161.189453125
 20
206.8159205987
 41
3.5
 42
3.5
 43
3.5
  0
INSERT
  8
0
 62
2
  6
CONTINUOUS
  2
_FILLED
 10
121.189453125
 20
206.8159205987
 41
3.5
 42
3.5
 43
3.5
 50
180.0
  0
ENDBLK
  8
0
  6
BYBLOCK
 62
0
  0
BLOCK
  8
0
 62
2
  6
CONTINUOUS
  2
*D2
 70
65
 10
0.0
 20
0.0
  0
TEXT
  8
0
 62
5
  6
CONTINUOUS
 10
71.9204761207
 20
196.946123619
  7
TEXTSTYLE_1
 40
3.5
  1
n
 41
1.0
 72
1
 11
74.2538094541
 21
196.946123619
  0
TEXT
  8
0
 62
5
  6
CONTINUOUS
 10
76.5871427874
 20
196.946123619
  7
STANDARD
 40
3.5
  1
57.6
 41
0.8
 72
1
 11
82.1871427874
 21
196.946123619
  0
LINE
  8
0
 62
2
  6
CONTINUOUS
 10
71.2144259018
 20
183.0642535924
 11
55.2936016854
 21
159.0949402674
  0
LINE
  8
0
 62
2
  6
CONTINUOUS
 10
55.2936016854
 20
159.0949402674
 11
78.1102399575
 21
193.446123619
  0
LINE
  8
0
 62
2
  6
CONTINUOUS
 10
39.3727774691
 20
135.1256269424
 11
55.2936016854
 21
159.0949402674
  0
INSERT
  8
0
 62
2
  6
CONTINUOUS
  2
_FILLED
 10
71.2144259018
 20
183.0642535924
 41
3.5
 42
3.5
 43
3.5
 50
56.4072135452
  0
INSERT
  8
0
 62
2
  6
CONTINUOUS
  2
_FILLED
 10
39.3727774691
 20
135.1256269424
 41
3.5
 42
3.5
 43
3.5
 50
236.4072135452
  0
ENDBLK
  8
0
  6
BYBLOCK
 62
0
  0
BLOCK
  8
0
 62
2
  6
CONTINUOUS
  2
*D3
 70
65
 10
0.0
 20
0.0
  0
TEXT
  8
0
 62
5
  6
CONTINUOUS
 10
77.5456915832
 20
132.883052395
  7
STANDARD
 40
3.5
  1
 B
 50
45.0
 41
0.8
 72
1
 11
79.5255905705
 21
134.8629513823
  0
LINE
  8
0
 62
2
  6
CONTINUOUS
 10
52.1370051615
 20
141.0383333557
 11
68.9189888527
 21
124.2563496645
  0
LINE
  8
0
 62
2
  6
CONTINUOUS
 10
68.9189888527
 20
124.2563496645
 11
70.9519208486
 21
122.2234176686
  0
LINE
  8
0
 62
2
  6
CONTINUOUS
 10
73.3502085971
 20
162.2515367913
 11
90.1321922883
 21
145.4695531001
  0
LINE
  8
0
 62
2
  6
CONTINUOUS
 10
90.1321922883
 20
145.4695531001
 11
92.1651242842
 21
143.4366211042
  0
LINE
  8
0
 62
2
  6
CONTINUOUS
 10
69.5377072862
 20
123.637631231
 11
80.144309004
 21
134.2442329488
  0
LINE
  8
0
 62
2
  6
CONTINUOUS
 10
90.7509107218
 20
144.8508346666
 11
80.144309004
 21
134.2442329488
  0
INSERT
  8
0
 62
2
  6
CONTINUOUS
  2
_FILLED
 10
69.5377072862
 20
123.637631231
 41
3.5
 42
3.5
 43
3.5
 50
225.0
  0
INSERT
  8
0
 62
2
  6
CONTINUOUS
  2
_FILLED
 10
90.7509107218
 20
144.8508346666
 41
3.5
 42
3.5
 43
3.5
 50
45.0
  0
ENDBLK
  8
0
  6
BYBLOCK
 62
0
  0
BLOCK
  8
0
 62
2
  6
CONTINUOUS
  2
*D4
 70
65
 10
0.0
 20
0.0
  0
TEXT
  8
0
 62
5
  6
CONTINUOUS
 10
96.2554309526
 20
178.574449687
  7
STANDARD
 40
3.5
  1
 ØC
 41
0.8
 72
1
 11
100.4554309526
 21
178.574449687
  0
LINE
  8
0
 62
2
  6
CONTINUOUS
 10
66.8513153248
 20
163.8561644198
 11
55.2936016854
 21
159.0949402674
  0
LINE
  8
0
 62
2
  6
CONTINUOUS
 10
55.2936016854
 20
159.0949402674
 11
94.0833305573
 21
175.074449687
  0
LINE
  8
0
 62
2
  6
CONTINUOUS
 10
43.735888046
 20
154.333716115
 11
55.2936016854
 21
159.0949402674
  0
INSERT
  8
0
 62
2
  6
CONTINUOUS
  2
_FILLED
 10
66.8513153248
 20
163.8561644198
 41
3.5
 42
3.5
 43
3.5
 50
22.3893137363
  0
INSERT
  8
0
 62
2
  6
CONTINUOUS
  2
_FILLED
 10
43.735888046
 20
154.333716115
 41
3.5
 42
3.5
 43
3.5
 50
202.3893137363
  0
ENDBLK
  8
0
  6
BYBLOCK
 62
0
  0
ENDSEC
  0
SECTION
  2
ENTITIES
  0
TEXT
  8
0
 62
5
  6
CONTINUOUS
 10
4.3371007583
 20
3.4022836623
  7
TEXTSTYLE_2
 40
2.5
  1
This drawing belongs to Ammeraal Beltech. It is not allowed to use, copy or to bring it to the knowledge of third party without the express permission from Ammeraal Beltech.
 41
0.47
 72
0
  0
INSERT
  8
0
 62
2
  6
CONTINUOUS
  2
AMMERAAL_LOGO_BL0
 10
48.9492142481
 20
38.2424096735
  0
DIMENSION
  8
0
 62
2
  6
CONTINUOUS
  2
*D0
 10
123.189453125
 20
123.6695153581
 11
107.0583767361
 21
123.6695153581
 70
128
 13
121.189453125
 23
132.3199402674
 14
123.189453125
 24
130.3199402674
  0
DIMENSION
  8
0
 62
2
  6
CONTINUOUS
  2
*D1
 10
121.189453125
 20
206.8159205987
 11
141.1894521484
 21
206.8159205987
 70
128
 13
161.189453125
 23
185.4631678543
 14
121.189453125
 24
185.4631678543
 50
180.0
  0
DIMENSION
  8
0
 62
2
  6
CONTINUOUS
  2
*D2
 10
71.2144259018
 20
183.0642535924
 11
79.8538094541
 21
198.696123619
 70
131
 15
39.3727774691
 25
135.1256269424
1001
ACAD
1000
DSTYLE
1002
{
1070
73
1070
1
1070
74
1070
1
1002
}
  0
DIMENSION
  8
0
 62
2
  6
CONTINUOUS
  2
*D3
 10
90.7509107218
 20
144.8508346666
 11
81.0723879103
 21
135.172311855
 70
128
 13
51.4298983803
 23
141.7454401369
 14
72.6431018159
 24
162.9586435725
 50
45.0
  0
DIMENSION
  8
0
 62
2
  6
CONTINUOUS
  2
*D4
 10
66.8513153248
 20
163.8561644198
 11
101.6804277344
 21
180.3244501953
 70
131
 15
43.735888046
 25
154.333716115
1001
ACAD
1000
DSTYLE
1002
{
1070
73
1070
1
1070
74
1070
1
1002
}
  0
LINE
  8
0
 62
2
  6
CONTINUOUS
 10
17.358515625
 20
281.84421875
 11
185.278515625
 21
281.84421875
  0
LINE
  8
0
 62
2
  6
CONTINUOUS
 10
17.358515625
 20
281.84421875
 11
17.358515625
 21
232.84421875
  0
LINE
  8
0
 62
2
  6
CONTINUOUS
 10
17.358515625
 20
274.84421875
 11
185.278515625
 21
274.84421875
  0
LINE
  8
0
 62
2
  6
CONTINUOUS
 10
17.358515625
 20
260.84421875
 11
185.278515625
 21
260.84421875
  0
LINE
  8
0
 62
2
  6
CONTINUOUS
 10
17.358515625
 20
253.84421875
 11
185.278515625
 21
253.84421875
  0
LINE
  8
0
 62
2
  6
CONTINUOUS
 10
17.358515625
 20
246.84421875
 11
185.278515625
 21
246.84421875
  0
LINE
  8
0
 62
2
  6
CONTINUOUS
 10
17.358515625
 20
239.84421875
 11
185.278515625
 21
239.84421875
  0
LINE
  8
0
 62
2
  6
CONTINUOUS
 10
17.358515625
 20
232.84421875
 11
185.278515625
 21
232.84421875
  0
LINE
  8
0
 62
2
  6
CONTINUOUS
 10
37.238515625
 20
274.84421875
 11
37.238515625
 21
232.84421875
  0
LINE
  8
0
 62
2
  6
CONTINUOUS
 10
75.238515625
 20
274.84421875
 11
75.238515625
 21
232.84421875
  0
LINE
  8
0
 62
2
  6
CONTINUOUS
 10
115.278515625
 20
274.84421875
 11
115.278515625
 21
232.84421875
  0
LINE
  8
0
 62
2
  6
CONTINUOUS
 10
185.278515625
 20
281.84421875
 11
185.278515625
 21
232.84421875
  0
TEXT
  8
0
 62
5
  6
CONTINUOUS
 10
18.758515625
 20
277.09421875
  7
STANDARD
 40
2.5
  1
 Tolerance see Instruction 12-7-058 : Standard hul tolerance / Bore dimensions.
 41
0.8
 72
0
  0
TEXT
  8
0
 62
5
  6
CONTINUOUS
 10
25.898515625
 20
266.09421875
  7
STANDARD
 40
3.5
  1
A
 41
0.8
 72
1
 11
27.298515625
 21
266.09421875
  0
TEXT
  8
0
 62
5
  6
CONTINUOUS
 10
54.838515625
 20
266.09421875
  7
STANDARD
 40
3.5
  1
B
 41
0.8
 72
1
 11
56.238515625
 21
266.09421875
  0
TEXT
  8
0
 62
5
  6
CONTINUOUS
 10
93.858515625
 20
266.09421875
  7
STANDARD
 40
3.5
  1
C
 41
0.8
 72
1
 11
95.258515625
 21
266.09421875
  0
TEXT
  8
0
 62
5
  6
CONTINUOUS
 10
139.078515625
 20
266.09421875
  7
STANDARD
 40
3.5
  1
Comments
 41
0.8
 72
1
 11
150.278515625
 21
266.09421875
  0
TEXT
  8
0
 62
5
  6
CONTINUOUS
 10
82.658515625
 20
255.59421875
  7
STANDARD
 40
3.5
  1
Ø18 / Ø25
 41
0.8
 72
1
 11
95.258515625
 21
255.59421875
  0
TEXT
  8
0
 62
5
  6
CONTINUOUS
 10
139.078515625
 20
255.59421875
  7
STANDARD
 40
3.5
  1
Machined
 41
0.8
 72
1
 11
150.278515625
 21
255.59421875
  0
TEXT
  8
0
 62
5
  6
CONTINUOUS
 10
39.438515625
 20
248.59421875
  7
STANDARD
 40
3.5
  1
25.4(1")    
 41
0.8
 72
1
 11
56.238515625
 21
248.59421875
  0
TEXT
  8
0
 62
5
  6
CONTINUOUS
 10
39.438515625
 20
241.59421875
  7
STANDARD
 40
3.5
  1
30X30       
 41
0.8
 72
1
 11
56.238515625
 21
241.59421875
  0
LINE
  8
0
 62
2
  6
CONTINUOUS
 10
10.0
 20
84.0
 11
200.0
 21
84.0
  0
LINE
  8
0
 62
2
  6
CONTINUOUS
 10
10.0
 20
84.0
 11
10.0
 21
8.0
  0
LINE
  8
0
 62
2
  6
CONTINUOUS
 10
89.0
 20
79.0
 11
200.0
 21
79.0
  0
LINE
  8
0
 62
2
  6
CONTINUOUS
 10
10.0
 20
74.0
 11
170.0
 21
74.0
  0
LINE
  8
0
 62
2
  6
CONTINUOUS
 10
10.0
 20
69.0
 11
200.0
 21
69.0
  0
LINE
  8
0
 62
2
  6
CONTINUOUS
 10
10.0
 20
64.0
 11
200.0
 21
64.0
  0
LINE
  8
0
 62
2
  6
CONTINUOUS
 10
10.0
 20
59.0
 11
200.0
 21
59.0
  0
LINE
  8
0
 62
2
  6
CONTINUOUS
 10
10.0
 20
54.0
 11
200.0
 21
54.0
  0
LINE
  8
0
 62
2
  6
CONTINUOUS
 10
89.0
 20
44.0
 11
200.0
 21
44.0
  0
LINE
  8
0
 62
2
  6
CONTINUOUS
 10
89.0
 20
27.0
 11
200.0
 21
27.0
  0
LINE
  8
0
 62
2
  6
CONTINUOUS
 10
10.0
 20
8.0
 11
200.0
 21
8.0
  0
LINE
  8
0
 62
2
  6
CONTINUOUS
 10
35.0
 20
84.0
 11
35.0
 21
74.0
  0
LINE
  8
0
 62
2
  6
CONTINUOUS
 10
47.0
 20
74.0
 11
47.0
 21
54.0
  0
LINE
  8
0
 62
2
  6
CONTINUOUS
 10
89.0
 20
84.0
 11
89.0
 21
8.0
  0
LINE
  8
0
 62
2
  6
CONTINUOUS
 10
114.0
 20
84.0
 11
114.0
 21
44.0
  0
LINE
  8
0
 62
2
  6
CONTINUOUS
 10
170.0
 20
84.0
 11
170.0
 21
69.0
  0
LINE
  8
0
 62
2
  6
CONTINUOUS
 10
200.0
 20
84.0
 11
200.0
 21
8.0
  0
TEXT
  8
0
 62
4
  6
CONTINUOUS
 10
11.0
 20
77.75
  7
STANDARD
 40
2.5
  1
Drawing No.
 41
0.8
 72
0
  0
TEXT
  8
0
 62
7
  6
CONTINUOUS
 10
36.0
 20
76.0
  7
TEXTSTYLE_3
 40
6.0
  1
843Z09IDLER
 41
0.7
 72
0
  0
TEXT
  8
0
 62
4
  6
CONTINUOUS
 10
90.0
 20
80.25
  7
TEXTSTYLE_3
 40
2.5
  1
Material
 41
0.7
 72
0
  0
TEXT
  8
0
 62
4
  6
CONTINUOUS
 10
180.0
 20
80.25
  7
STANDARD
 40
2.5
  1
Scale
 41
0.8
 72
1
 11
185.0
 21
80.25
  0
TEXT
  8
0
 62
4
  6
CONTINUOUS
 10
90.0
 20
75.25
  7
TEXTSTYLE_3
 40
2.5
  1
Shrinkage
 41
0.7
 72
0
  0
TEXT
  8
0
 62
4
  6
CONTINUOUS
 10
179.0
 20
70.25
  7
STANDARD
 40
5.0
  1
1:1
 41
0.8
 72
1
 11
185.0
 21
70.25
  0
TEXT
  8
0
 62
4
  6
CONTINUOUS
 10
11.0
 20
70.25
  7
STANDARD
 40
2.5
  1
Designer
 41
0.8
 72
0
  0
TEXT
  8
0
 62
4
  6
CONTINUOUS
 10
48.0
 20
70.25
  7
STANDARD
 40
2.5
  1
MTH
 41
0.8
 72
0
  0
TEXT
  8
0
 62
4
  6
CONTINUOUS
 10
90.0
 20
70.25
  7
TEXTSTYLE_4
 40
2.5
  1
Proj. surf. Area
 41
0.58
 72
0
  0
TEXT
  8
0
 62
4
  6
CONTINUOUS
 10
11.0
 20
65.25
  7
STANDARD
 40
2.5
  1
Date
 41
0.8
 72
0
  0
TEXT
  8
0
 62
4
  6
CONTINUOUS
 10
48.0
 20
65.25
  7
STANDARD
 40
2.5
  1
12-Jun-14
 41
0.8
 72
0
  0
TEXT
  8
0
 62
4
  6
CONTINUOUS
 10
90.0
 20
65.25
  7
TEXTSTYLE_3
 40
2.5
  1
Tool No.
 41
0.7
 72
0
  0
TEXT
  8
0
 62
4
  6
CONTINUOUS
 10
115.0
 20
65.25
  7
STANDARD
 40
2.5
  1
UNI_FL
 41
0.8
 72
0
  0
TEXT
  8
0
 62
4
  6
CONTINUOUS
 10
11.0
 20
60.25
  7
STANDARD
 40
2.5
  1
Approval Signature
 41
0.8
 72
0
  0
TEXT
  8
0
 62
4
  6
CONTINUOUS
 10
90.0
 20
60.25
  7
TEXTSTYLE_5
 40
2.5
  1
Finish Top Surf.
 41
0.6
 72
0
  0
TEXT
  8
0
 62
4
  6
CONTINUOUS
 10
11.0
 20
55.25
  7
STANDARD
 40
2.5
  1
Approval Date
 41
0.8
 72
0
  0
TEXT
  8
0
 62
4
  6
CONTINUOUS
 10
90.0
 20
55.25
  7
STANDARD
 40
2.5
  1
Part Name
 41
0.8
 72
0
  0
TEXT
  8
0
 62
4
  6
CONTINUOUS
 10
115.0
 20
55.25
  7
STANDARD
 40
2.5
  1
843Z09IDLER
 41
0.8
 72
0
  0
TEXT
  8
0
 62
4
  6
CONTINUOUS
 10
137.0
 20
55.25
  7
STANDARD
 40
2.5
  1
.
 41
0.8
 72
0
  0
TEXT
  8
0
 62
4
  6
CONTINUOUS
 10
139.0
 20
55.25
  7
STANDARD
 40
2.5
  1
PART
 41
0.8
 72
0
  0
TEXT
  8
0
 62
4
  6
CONTINUOUS
 10
90.0
 20
50.25
  7
STANDARD
 40
2.5
  1
Project No.
 41
0.8
 72
0
  0
TEXT
  8
0
 62
7
  6
CONTINUOUS
 10
115.0
 20
46.0
  7
STANDARD
 40
6.0
  1
200129
 41
0.8
 72
0
  0
TEXT
  8
0
 62
4
  6
CONTINUOUS
 10
90.0
 20
40.25
  7
STANDARD
 40
2.5
  1
Project
 41
0.8
 72
0
  0
TEXT
  8
0
 62
7
  6
CONTINUOUS
 10
90.0
 20
29.75
  7
STANDARD
 40
7.5
  1
uni Flex OSB
 41
0.8
 72
0
  0
TEXT
  8
0
 62
4
  6
CONTINUOUS
 10
90.0
 20
23.25
  7
STANDARD
 40
2.5
  1
Name
 41
0.8
 72
0
  0
TEXT
  8
0
 62
7
  6
CONTINUOUS
 10
90.0
 20
11.75
  7
STANDARD
 40
7.5
  1
Idler Z09
 41
0.8
 72
0
  0
TEXT
  8
0
 62
5
  6
CONTINUOUS
 10
11.0
 20
21.3607692308
  7
TEXTSTYLE_6
 40
1.2
  1
 Ammeraal Beltech      Hjulmagervej 21       tel: +45 75723 100
 41
1.0231990232
 72
0
  0
TEXT
  8
0
 62
5
  6
CONTINUOUS
 10
11.0
 20
18.3330769231
  7
TEXTSTYLE_6
 40
1.2
  1
 Modular A/S         DK-Vejle             fax: +45 75723348 
 41
1.0825641026
 72
0
  0
TEXT
  8
0
 62
5
  6
CONTINUOUS
 10
11.0
 20
15.3053846154
  7
TEXTSTYLE_6
 40
1.2
  1
                                    admin@unichains.dk 
 41
1.1311888112
 72
0
  0
TEXT
  8
0
 62
5
  6
CONTINUOUS
 10
11.0
 20
12.2776923077
  7
TEXTSTYLE_6
 40
1.2
  1
                                    www.unichains.dk
 41
1.1588757396
 72
0
  0
TEXT
  8
0
 62
5
  6
CONTINUOUS
 10
11.0
 20
9.25
  7
TEXTSTYLE_6
 40
1.2
  1
 
 41
1.2307692308
 72
0
  0
LINE
  8
0
 62
2
  6
CONTINUOUS
 10
114.0
 20
109.0
 11
200.0
 21
109.0
  0
LINE
  8
0
 62
2
  6
CONTINUOUS
 10
114.0
 20
109.0
 11
114.0
 21
84.0
  0
LINE
  8
0
 62
2
  6
CONTINUOUS
 10
114.0
 20
104.0
 11
200.0
 21
104.0
  0
LINE
  8
0
 62
2
  6
CONTINUOUS
 10
114.0
 20
99.0
 11
200.0
 21
99.0
  0
LINE
  8
0
 62
2
  6
CONTINUOUS
 10
114.0
 20
94.0
 11
200.0
 21
94.0
  0
LINE
  8
0
 62
2
  6
CONTINUOUS
 10
114.0
 20
89.0
 11
200.0
 21
89.0
  0
LINE
  8
0
 62
2
  6
CONTINUOUS
 10
114.0
 20
84.0
 11
200.0
 21
84.0
  0
LINE
  8
0
 62
2
  6
CONTINUOUS
 10
122.0
 20
109.0
 11
122.0
 21
84.0
  0
LINE
  8
0
 62
2
  6
CONTINUOUS
 10
176.0
 20
109.0
 11
176.0
 21
84.0
  0
LINE
  8
0
 62
2
  6
CONTINUOUS
 10
188.0
 20
109.0
 11
188.0
 21
84.0
  0
LINE
  8
0
 62
2
  6
CONTINUOUS
 10
200.0
 20
109.0
 11
200.0
 21
84.0
  0
TEXT
  8
0
 62
4
  6
CONTINUOUS
 10
116.64
 20
104.8
  7
STANDARD
 40
3.4
  1
D
 41
0.8
 72
1
 11
118.0
 21
104.8
  0
TEXT
  8
0
 62
4
  6
CONTINUOUS
 10
116.64
 20
99.8
  7
STANDARD
 40
3.4
  1
C
 41
0.8
 72
1
 11
118.0
 21
99.8
  0
TEXT
  8
0
 62
4
  6
CONTINUOUS
 10
116.64
 20
94.8
  7
STANDARD
 40
3.4
  1
B
 41
0.8
 72
1
 11
118.0
 21
94.8
  0
TEXT
  8
0
 62
4
  6
CONTINUOUS
 10
116.64
 20
89.8
  7
STANDARD
 40
3.4
  1
A
 41
0.8
 72
1
 11
118.0
 21
89.8
  0
TEXT
  8
0
 62
4
  6
CONTINUOUS
 10
114.94
 20
84.8
  7
TEXTSTYLE_5
 40
3.4
  1
Rev
 41
0.6
 72
1
 11
118.0
 21
84.8
  0
TEXT
  8
0
 62
4
  6
CONTINUOUS
 10
123.36
 20
84.8
  7
TEXTSTYLE_5
 40
3.4
  1
Modification
 41
0.6
 72
0
  0
TEXT
  8
0
 62
4
  6
CONTINUOUS
 10
177.92
 20
84.8
  7
TEXTSTYLE_5
 40
3.4
  1
Date
 41
0.6
 72
1
 11
182.0
 21
84.8
  0
TEXT
  8
0
 62
4
  6
CONTINUOUS
 10
188.9
 20
84.8
  7
TEXTSTYLE_5
 40
3.4
  1
Init.
 41
0.6
 72
1
 11
194.0
 21
84.8
  0
LINE
  8
0
 62
7
  6
CONTINUOUS
 10
0.0
 20
0.0
 11
210.0
 21
0.0
  0
LINE
  8
0
 62
7
  6
CONTINUOUS
 10
0.0
 20
0.0
 11
0.0
 21
297.0
  0
LINE
  8
0
 62
7
  6
CONTINUOUS
 10
10.0
 20
10.0
 11
10.0
 21
287.0
  0
LINE
  8
0
 62
7
  6
CONTINUOUS
 10
10.0
 20
84.0
 11
200.0
 21
84.0
  0
LINE
  8
0
 62
7
  6
CONTINUOUS
 10
200.0
 20
10.0
 11
200.0
 21
287.0
  0
LINE
  8
0
 62
7
  6
CONTINUOUS
 10
210.0
 20
0.0
 11
210.0
 21
297.0
  0
LINE
  8
0
 62
7
  6
CONTINUOUS
 10
10.0
 20
287.0
 11
200.0
 21
287.0
  0
LINE
  8
0
 62
7
  6
CONTINUOUS
 10
0.0
 20
297.0
 11
210.0
 21
297.0
  0
LINE
  8
CURVE
 62
8
  6
PHANTOM
 10
51.4298983803
 20
176.4444403978
 11
37.944101555
 21
162.9586435725
  0
LINE
  8
CURVE
 62
8
  6
PHANTOM
 10
51.4298983803
 20
141.7454401369
 11
37.944101555
 21
155.2312369622
  0
LINE
  8
CURVE
 62
8
  6
PHANTOM
 10
51.2936016854
 20
170.9376595497
 11
51.2936016854
 21
174.8949402674
  0
LINE
  8
0
 62
2
  6
CONTINUOUS
 10
55.2936016854
 20
159.9749402674
 11
55.2936016854
 21
158.2149402674
  0
LINE
  8
DEFAULT_1
 62
2
  6
CENTER
 10
55.2936016854
 20
154.6949402674
 11
55.2936016854
 21
116.6685561724
  0
LINE
  8
DEFAULT_1
 62
2
  6
CENTER
 10
55.2936016854
 20
163.4949402674
 11
55.2936016854
 21
201.5213243624
  0
LINE
  8
0
 62
2
  6
CONTINUOUS
 10
56.1736016854
 20
159.0949402674
 11
54.4136016854
 21
159.0949402674
  0
LINE
  8
DEFAULT_1
 62
2
  6
CENTER
 10
50.8936016854
 20
159.0949402674
 11
12.8672175905
 21
159.0949402674
  0
LINE
  8
DEFAULT_1
 62
2
  6
CENTER
 10
59.6936016854
 20
159.0949402674
 11
97.7199857804
 21
159.0949402674
  0
LINE
  8
CURVE
 62
8
  6
PHANTOM
 10
59.2936016854
 20
174.8949402674
 11
59.2936016854
 21
170.9376595497
  0
LINE
  8
CURVE
 62
8
  6
PHANTOM
 10
59.1573049906
 20
141.7454401369
 11
72.6431018159
 21
155.2312369622
  0
LINE
  8
CURVE
 62
8
  6
PHANTOM
 10
51.2936016854
 20
174.8949402674
 11
59.2936016854
 21
174.8949402674
  0
LINE
  8
CURVE
 62
8
  6
PHANTOM
 10
59.1573049906
 20
176.4444403978
 11
72.6431018159
 21
162.9586435725
  0
LINE
  8
0
 62
7
  6
CONTINUOUS
 10
121.189453125
 20
185.8699402674
 11
123.189453125
 21
187.8699402674
  0
LINE
  8
0
 62
7
  6
CONTINUOUS
 10
121.189453125
 20
132.3199402674
 11
123.189453125
 21
130.3199402674
  0
LINE
  8
0
 62
7
  6
CONTINUOUS
 10
123.189453125
 20
130.3199402674
 11
159.189453125
 21
130.3199402674
  0
LINE
  8
0
 62
7
  6
CONTINUOUS
 10
121.189453125
 20
185.8699280931
 11
121.189453125
 21
132.3199446532
  0
LINE
  8
0
 62
7
  6
CONTINUOUS
 10
123.189453125
 20
187.8699402674
 11
123.189453125
 21
130.3199402674
  0
LINE
  8
DEFAULT_1
 62
2
  6
CENTER
 10
119.189453125
 20
159.0949402674
 11
163.189453125
 21
159.0949402674
  0
LINE
  8
0
 62
7
  6
CONTINUOUS
 10
159.189453125
 20
130.3199402674
 11
159.189453125
 21
187.8699402674
  0
LINE
  8
CURVE
 62
8
  6
PHANTOM
 10
161.189453125
 20
136.7101883259
 11
161.189453125
 21
181.4796922088
  0
LINE
  8
0
 62
7
  6
CONTINUOUS
 10
161.189453125
 20
132.3199446532
 11
161.189453125
 21
185.8699280931
  0
LINE
  8
0
 62
7
  6
CONTINUOUS
 10
123.189453125
 20
187.8699402674
 11
159.189453125
 21
187.8699402674
  0
LINE
  8
0
 62
7
  6
CONTINUOUS
 10
161.189453125
 20
132.3199402674
 11
159.189453125
 21
130.3199402674
  0
LINE
  8
0
 62
7
  6
CONTINUOUS
 10
161.189453125
 20
185.8699402674
 11
159.189453125
 21
187.8699402674
  0
CIRCLE
  8
0
 62
7
  6
CONTINUOUS
 10
55.2936016854
 20
159.0949402674
 40
28.775
  0
CIRCLE
  8
0
 62
7
  6
CONTINUOUS
 10
55.2936016854
 20
159.0949402674
 40
26.775
  0
ARC
  8
CURVE
 62
8
  6
PHANTOM
 10
55.2936016854
 20
159.0949402674
 40
12.5
 50
108.6629248849
 51
71.3370751151
  0
ARC
  8
CURVE
 62
8
  6
PHANTOM
 10
73.6783779963
 20
159.0949402674
 40
4.0
 50
255.0
 51
105.0
  0
ARC
  8
CURVE
 62
8
  6
PHANTOM
 10
55.2936016854
 20
140.7101639565
 40
4.0
 50
165.0
 51
15.0
  0
ARC
  8
CURVE
 62
8
  6
PHANTOM
 10
36.9088253746
 20
159.0949402674
 40
4.0
 50
75.0
 51
285.0
  0
ARC
  8
CURVE
 62
8
  6
PHANTOM
 10
55.2936016854
 20
177.4797165782
 40
4.0
 50
345.0
 51
195.0
  0
ENDSEC
  0
EOF
